Поиск

1987 Basia - Time And Tide {BMG, Sony Music 781235}

1987 Basia - Time And Tide {BMG, Sony Music 781235}
Издатель (лейбл):
Треклист:
Год выпуска диска: 1987
Производитель диска: USA
Аудио кодек: FLAC
Тип рипа: image+.cue
Продолжительность: 00:44:52
Трэклист:
01. Promises
02. Run For Cover
03. Time And Tide
04. Freeze Thaw
05. From Now On
06. New Day For You
07. Prime Time TV
08. Astrud
09. How Dare You
10. Miles Away
11. Forgive And Forget
 
LOG
Exact Audio Copy V0.99 prebeta 4 from 23. January 2008
EAC extraction logfile from 17. April 2010, 11:08
Basia / Time And Tide
Used drive : PIONEER DVD-RW DVR-118L Adapter: 0 ID: 0
Read mode : Secure
Utilize accurate stream : Yes
Defeat audio cache : Yes
Make use of C2 pointers : No
Combined read/write offset correction : 6
Overread into Lead-In and Lead-Out : No
Fill up missing offset samples with silence : Yes
Delete leading and trailing silent blocks : No
Null samples used in CRC calculations : Yes
Used interface : Native Win32 interface for Win NT & 2000
Used output format : User Defined Encoder
Selected bitrate : 768 kBit/s
Quality : High
Add ID3 tag : No
Command line compressor : C:\Program Files\Exact Audio Copy\FLAC\FLAC.EXE
Additional command line options : -8 -V %s
TOC of the extracted CD
Track | Start | Length | Start sector | End sector
---------------------------------------------------------
1 | 0:00.00 | 4:02.33 | 0 | 18182
2 | 4:02.33 | 3:39.22 | 18183 | 34629
3 | 7:41.55 | 4:02.00 | 34630 | 52779
4 | 11:43.55 | 3:57.69 | 52780 | 70623
5 | 15:41.49 | 3:45.29 | 70624 | 87527
6 | 19:27.03 | 4:29.12 | 87528 | 107714
7 | 23:56.15 | 5:22.04 | 107715 | 131868
8 | 29:18.19 | 4:40.08 | 131869 | 152876
9 | 33:58.27 | 3:23.58 | 152877 | 168159
10 | 37:22.10 | 4:12.67 | 168160 | 187126
11 | 41:35.02 | 3:17.12 | 187127 | 201913
Range status and errors
Selected range
Filename D:\DOWNLOAD\BASIA\Basia - Time And Tide - MSG (1987) Flac\Basia - Time And Tide.wav
Peak level 100.0 %
Range quality 100.0 %
Test CRC 7BBBC057
Copy CRC 7BBBC057
Copy OK
No errors occurred
End of status repor

Доп. информация:
Переиздание (Sony MasterSound Gold) 2001 года первого диска певицы,
ставшего №1 в U.S. Billboard Top Contemporary Jazz Albums

Приватный:
Нет (DHT включён)
Размер:
291.59 Мб (305,756,234 байт) » файлов: 9
Участники:
0 раздают, 1 качают (1 участников всего)
Внешние участники:
3 раздают, 1 качают (4 участников всего) [ Обновить ]
Скорость:
496.82 Кб/c 0/c
For power users only: no seeders - write to support@pro-jazz.com. Для power user: нет сидеров - пишите на support@pro-jazz.com.
21:22
235
Нет комментариев. Ваш будет первым!