Поиск

1986 The Zagreb Jazz Quartet - The Zagreb Jazz Quartet (2021) {Croatia} [24-96]

1986 The Zagreb Jazz Quartet - The Zagreb Jazz Quartet (2021) {Croatia} [24-96]
Стили:
Дата записи диска:
22 октября 1984
Дата издания диска:
1 января 1986
Носитель:
WEB
Формат:
PCM
Тип рипа:
tracks
Контейнер:
FLAC (*.flac)
Количество каналов:
2.0
Разрядность/ЧД:
24/96
Битрейт аудио:
lossless
Время звучания:
00:35:59
Наличие сканов:
только обложка

01 - Opening Speech By Willis Conover On The Occasion Of The 25Th Anniversary Of The Zagreb Jazz Quartet, "Gavella" Theatre, October 20 1984 02:19
02 - With Pain I Was Born 07:45
03 - Valse For Jazz Mama 07:39
04 - Intima 05:00
05 - Ornaments 07:10
06 - Eftertanke 06:06

Состав:
  • Bass – Miljenko Prohaska
  • Drums – Silvije Glojnarić
  • Editor – Vida Ramušćak
  • Editor [Editor In Chief] – Dubravko Majnarić
  • Engineer [Sound Engineer] – Franjo Berner
  • Piano – Davor Kajfeš
  • Producer, Liner Notes – Mladen Mazur
  • Vibraphone – Boško Petrović
Лог проверки качества
foobar2000 1.4.1 / Dynamic Range Meter 1.1.1
log date: 2022-02-09 17:06:09
--------------------------------------------------------------------------------
Analyzed: The Zagreb Jazz Quartet / The Zagreb Jazz Quartet (Remaster 2021)
--------------------------------------------------------------------------------
DR         Peak         RMS     Duration Track
--------------------------------------------------------------------------------
DR15      -0.09 dB   -18.09 dB      2:19 01-Opening Speech By Willis Conover On The Occasion Of The 25Th Anniversary Of The Zagreb Jazz Quartet, "Gavella" Theatre, October 20 1984 (Remaster 2021)
DR9       -0.10 dB   -11.62 dB      7:45 02-With Pain I Was Born (Remaster 2021)
DR9       -0.10 dB   -11.71 dB      7:39 03-Valse For Jazz Mama (Remaster 2021)
DR11      -0.10 dB   -14.02 dB      5:00 04-Intima (Remaster 2021)
DR11      -0.10 dB   -13.49 dB      7:10 05-Ornaments (Remaster 2021)
DR10      -0.10 dB   -13.17 dB      6:06 06-Eftertanke (Remaster 2021)
--------------------------------------------------------------------------------
Number of tracks:  6
Official DR value: DR11
Samplerate:        96000 Hz
Channels:          2
Bits per sample:   24
Bitrate:           3015 kbps
Codec:             FLAC
================================================================================
17:33
291
Нет комментариев. Ваш будет первым!