Поиск

1986 Ryuichi Sakamoto - Futurista

1986 Ryuichi Sakamoto - Futurista
Битрейт аудио:
lossless
Треклист:
Страна-производитель диска: Япония
Год издания: 1986
Издатель (лейбл): Midi, Inc.
Номер по каталогу: 35MD-1015
Аудиокодек: FLAC (*.flac)
Тип рипа: tracks+.cue
Битрейт аудио: lossless
Продолжительность: 42:54
Источник (релизер): sassyass (what)
Наличие сканов в содержимом раздачи: нет
Треклист:
01. Broadway Boogie Woogie (4:30)
02. Kodo Kogen (5:26)
03. Ballet Mecanique (5:10)
04. G.T. II (4:07)
05. Milan, 1909 (4:19)
06. Variety Show (3:57)
07. Daikokai - Verso lo Schermo (5:25)
08. Water Is Life (1:56)
09. Parolibre (3:36)
10. G.T. (4:28)
 
Лог создания рипа
X Lossless Decoder version 20101212 (126.2)
XLD extraction logfile from 2011-01-21 09:14:48 -0800
Ryuichi Sakamoto (хЭВцЬмщ╛Нф╕А) / Futurista (цЬкцЭец┤╛щЗОщГО)
Used drive : OPTIARC DVD RW AD-5670S (revision 2AHI)
Ripper mode             : CDParanoia III 10.2
Disable audio cache     : OK for the drive with a cache less than 2750KiB
Make use of C2 pointers : NO
Read offset correction  : 48
Max retry count         : 100
Gap status              : Analyzed, Appended
TOC of the extracted CD
     Track |   Start  |  Length  | Start sector | End sector
    ---------------------------------------------------------
        1  | 00:00:00 | 04:29:43 |         0    |    20217
        2  | 04:29:43 | 05:26:00 |     20218    |    44667
        3  | 09:55:43 | 05:09:57 |     44668    |    67899
        4  | 15:05:25 | 04:07:00 |     67900    |    86424
        5  | 19:12:25 | 04:18:70 |     86425    |   105844
        6  | 23:31:20 | 03:56:40 |    105845    |   123584
        7  | 27:27:60 | 05:24:53 |    123585    |   147937
        8  | 32:52:38 | 01:55:70 |    147938    |   156632
        9  | 34:48:33 | 03:35:55 |    156633    |   172812
       10  | 38:24:13 | 04:28:35 |    172813    |   192947
AccurateRip Summary
    Disc not found in AccurateRip DB.
All Tracks
    Album gain             : -3.49 dB
    Peak                   : 0.999969
    Statistics
        Read error                           : 0
        Skipped (treated as error)           : 0
        Edge jitter error (maybe fixed)      : 0
        Atom jitter error (maybe fixed)      : 0
        Drift error (maybe fixed)            : 0
        Dropped bytes error (maybe fixed)    : 0
        Duplicated bytes error (maybe fixed) : 0
Track 01
    Filename : /Users/ed/Desktop/ripper/Ryuichi Sakamoto (хЭВцЬмщ╛Нф╕А) - Futurista (цЬкцЭец┤╛щЗОщГО) (1986) [FLAC (level 5)]/01 Broadway Boogie Woogie.flac
               /Users/ed/Desktop/ripper/Ryuichi Sakamoto (хЭВцЬмщ╛Нф╕А) - Futurista (цЬкцЭец┤╛щЗОщГО) (1986) [LAME MP3 (CBR 320kbps)]/01 Broadway Boogie Woogie.mp3
               /Users/ed/Desktop/ripper/Ryuichi Sakamoto (хЭВцЬмщ╛Нф╕А) - Futurista (цЬкцЭец┤╛щЗОщГО) (1986) [LAME MP3 (VBR-new quality 5.0)]/01 Broadway Boogie Woogie.mp3
    Pre-gap length : 00:02:00
    Track gain             : -3.97 dB
    Peak                   : 0.937103
    CRC32 hash (test run)  : 1DCBFDEE
    CRC32 hash             : 1DCBFDEE
    CRC32 hash (skip zero) : D959AFFC
    AccurateRip signature  : 0E8AB591
        ->Track not present in AccurateRip database.
    Statistics
        Read error                           : 0
        Skipped (treated as error)           : 0
        Edge jitter error (maybe fixed)      : 0
        Atom jitter error (maybe fixed)      : 0
        Drift error (maybe fixed)            : 0
        Dropped bytes error (maybe fixed)    : 0
        Duplicated bytes error (maybe fixed) : 0
        Inconsistency in error sectors       : 0
Track 02
    Filename : /Users/ed/Desktop/ripper/Ryuichi Sakamoto (хЭВцЬмщ╛Нф╕А) - Futurista (цЬкцЭец┤╛щЗОщГО) (1986) [FLAC (level 5)]/02 Kodo Kogen (щ╗ДхЬЯщлШхОЯ).flac
               /Users/ed/Desktop/ripper/Ryuichi Sakamoto (хЭВцЬмщ╛Нф╕А) - Futurista (цЬкцЭец┤╛щЗОщГО) (1986) [LAME MP3 (CBR 320kbps)]/02 Kodo Kogen (щ╗ДхЬЯщлШхОЯ).mp3
               /Users/ed/Desktop/ripper/Ryuichi Sakamoto (хЭВцЬмщ╛Нф╕А) - Futurista (цЬкцЭец┤╛щЗОщГО) (1986) [LAME MP3 (VBR-new quality 5.0)]/02 Kodo Kogen (щ╗ДхЬЯщлШхОЯ).mp3
    Track gain             : -4.85 dB
    Peak                   : 0.999969
    CRC32 hash (test run)  : 0CABD0B5
    CRC32 hash             : 0CABD0B5
    CRC32 hash (skip zero) : 4451F506
    AccurateRip signature  : 6423DD1B
        ->Track not present in AccurateRip database.
    Statistics
        Read error                           : 0
        Skipped (treated as error)           : 0
        Edge jitter error (maybe fixed)      : 0
        Atom jitter error (maybe fixed)      : 0
        Drift error (maybe fixed)            : 0
        Dropped bytes error (maybe fixed)    : 0
        Duplicated bytes error (maybe fixed) : 0
        Inconsistency in error sectors       : 0
Track 03
    Filename : /Users/ed/Desktop/ripper/Ryuichi Sakamoto (хЭВцЬмщ╛Нф╕А) - Futurista (цЬкцЭец┤╛щЗОщГО) (1986) [FLAC (level 5)]/03 Ballet Mecanique.flac
               /Users/ed/Desktop/ripper/Ryuichi Sakamoto (хЭВцЬмщ╛Нф╕А) - Futurista (цЬкцЭец┤╛щЗОщГО) (1986) [LAME MP3 (CBR 320kbps)]/03 Ballet Mecanique.mp3
               /Users/ed/Desktop/ripper/Ryuichi Sakamoto (хЭВцЬмщ╛Нф╕А) - Futurista (цЬкцЭец┤╛щЗОщГО) (1986) [LAME MP3 (VBR-new quality 5.0)]/03 Ballet Mecanique.mp3
    Track gain             : -5.22 dB
    Peak                   : 0.893280
    CRC32 hash (test run)  : 596F41AD
    CRC32 hash             : 596F41AD
    CRC32 hash (skip zero) : 3C57FE1F
    AccurateRip signature  : BDD838ED
        ->Track not present in AccurateRip database.
    Statistics
        Read error                           : 0
        Skipped (treated as error)           : 0
        Edge jitter error (maybe fixed)      : 0
        Atom jitter error (maybe fixed)      : 0
        Drift error (maybe fixed)            : 0
        Dropped bytes error (maybe fixed)    : 0
        Duplicated bytes error (maybe fixed) : 0
        Inconsistency in error sectors       : 0
Track 04
    Filename : /Users/ed/Desktop/ripper/Ryuichi Sakamoto (хЭВцЬмщ╛Нф╕А) - Futurista (цЬкцЭец┤╛щЗОщГО) (1986) [FLAC (level 5)]/04 G.T.II┬░.flac
               /Users/ed/Desktop/ripper/Ryuichi Sakamoto (хЭВцЬмщ╛Нф╕А) - Futurista (цЬкцЭец┤╛щЗОщГО) (1986) [LAME MP3 (CBR 320kbps)]/04 G.T.II┬░.mp3
               /Users/ed/Desktop/ripper/Ryuichi Sakamoto (хЭВцЬмщ╛Нф╕А) - Futurista (цЬкцЭец┤╛щЗОщГО) (1986) [LAME MP3 (VBR-new quality 5.0)]/04 G.T.II┬░.mp3
    Pre-gap length : 00:00:65
    Track gain             : -2.50 dB
    Peak                   : 0.897461
    CRC32 hash (test run)  : 1A7C7BBA
    CRC32 hash             : 1A7C7BBA
    CRC32 hash (skip zero) : EFCA053D
    AccurateRip signature  : 9805AB44
        ->Track not present in AccurateRip database.
    Statistics
        Read error                           : 0
        Skipped (treated as error)           : 0
        Edge jitter error (maybe fixed)      : 0
        Atom jitter error (maybe fixed)      : 0
        Drift error (maybe fixed)            : 0
        Dropped bytes error (maybe fixed)    : 0
        Duplicated bytes error (maybe fixed) : 0
        Inconsistency in error sectors       : 0
Track 05
    Filename : /Users/ed/Desktop/ripper/Ryuichi Sakamoto (хЭВцЬмщ╛Нф╕А) - Futurista (цЬкцЭец┤╛щЗОщГО) (1986) [FLAC (level 5)]/05 Milan, 1909.flac
               /Users/ed/Desktop/ripper/Ryuichi Sakamoto (хЭВцЬмщ╛Нф╕А) - Futurista (цЬкцЭец┤╛щЗОщГО) (1986) [LAME MP3 (CBR 320kbps)]/05 Milan, 1909.mp3
               /Users/ed/Desktop/ripper/Ryuichi Sakamoto (хЭВцЬмщ╛Нф╕А) - Futurista (цЬкцЭец┤╛щЗОщГО) (1986) [LAME MP3 (VBR-new quality 5.0)]/05 Milan, 1909.mp3
    Pre-gap length : 00:01:35
    Track gain             : 4.58 dB
    Peak                   : 0.475800
    CRC32 hash (test run)  : EB8300E0
    CRC32 hash             : EB8300E0
    CRC32 hash (skip zero) : 5140FCA2
    AccurateRip signature  : 9D27736F
        ->Track not present in AccurateRip database.
    Statistics
        Read error                           : 0
        Skipped (treated as error)           : 0
        Edge jitter error (maybe fixed)      : 0
        Atom jitter error (maybe fixed)      : 0
        Drift error (maybe fixed)            : 0
        Dropped bytes error (maybe fixed)    : 0
        Duplicated bytes error (maybe fixed) : 0
        Inconsistency in error sectors       : 0
Track 06
    Filename : /Users/ed/Desktop/ripper/Ryuichi Sakamoto (хЭВцЬмщ╛Нф╕А) - Futurista (цЬкцЭец┤╛щЗОщГО) (1986) [FLAC (level 5)]/06 Variety Show.flac
               /Users/ed/Desktop/ripper/Ryuichi Sakamoto (хЭВцЬмщ╛Нф╕А) - Futurista (цЬкцЭец┤╛щЗОщГО) (1986) [LAME MP3 (CBR 320kbps)]/06 Variety Show.mp3
               /Users/ed/Desktop/ripper/Ryuichi Sakamoto (хЭВцЬмщ╛Нф╕А) - Futurista (цЬкцЭец┤╛щЗОщГО) (1986) [LAME MP3 (VBR-new quality 5.0)]/06 Variety Show.mp3
    Track gain             : -3.68 dB
    Peak                   : 0.999969
    CRC32 hash (test run)  : 86DE7ED4
    CRC32 hash             : 86DE7ED4
    CRC32 hash (skip zero) : CF04EA55
    AccurateRip signature  : 1868AE7A
        ->Track not present in AccurateRip database.
    Statistics
        Read error                           : 0
        Skipped (treated as error)           : 0
        Edge jitter error (maybe fixed)      : 0
        Atom jitter error (maybe fixed)      : 0
        Drift error (maybe fixed)            : 0
        Dropped bytes error (maybe fixed)    : 0
        Duplicated bytes error (maybe fixed) : 0
        Inconsistency in error sectors       : 0
Track 07
    Filename : /Users/ed/Desktop/ripper/Ryuichi Sakamoto (хЭВцЬмщ╛Нф╕А) - Futurista (цЬкцЭец┤╛щЗОщГО) (1986) [FLAC (level 5)]/07 Daikokai (хдзшИкц╡╖) я╝П Verso il schermo.flac
               /Users/ed/Desktop/ripper/Ryuichi Sakamoto (хЭВцЬмщ╛Нф╕А) - Futurista (цЬкцЭец┤╛щЗОщГО) (1986) [LAME MP3 (CBR 320kbps)]/07 Daikokai (хдзшИкц╡╖) я╝П Verso il schermo.mp3
               /Users/ed/Desktop/ripper/Ryuichi Sakamoto (хЭВцЬмщ╛Нф╕А) - Futurista (цЬкцЭец┤╛щЗОщГО) (1986) [LAME MP3 (VBR-new quality 5.0)]/07 Daikokai (хдзшИкц╡╖) я╝П Verso il schermo.mp3
    Track gain             : -3.83 dB
    Peak                   : 0.866364
    CRC32 hash (test run)  : 72F37722
    CRC32 hash             : 72F37722
    CRC32 hash (skip zero) : 78161960
    AccurateRip signature  : F6D8C945
        ->Track not present in AccurateRip database.
    Statistics
        Read error                           : 0
        Skipped (treated as error)           : 0
        Edge jitter error (maybe fixed)      : 0
        Atom jitter error (maybe fixed)      : 0
        Drift error (maybe fixed)            : 0
        Dropped bytes error (maybe fixed)    : 0
        Duplicated bytes error (maybe fixed) : 0
        Inconsistency in error sectors       : 0
Track 08
    Filename : /Users/ed/Desktop/ripper/Ryuichi Sakamoto (хЭВцЬмщ╛Нф╕А) - Futurista (цЬкцЭец┤╛щЗОщГО) (1986) [FLAC (level 5)]/08 Water is Life.flac
               /Users/ed/Desktop/ripper/Ryuichi Sakamoto (хЭВцЬмщ╛Нф╕А) - Futurista (цЬкцЭец┤╛щЗОщГО) (1986) [LAME MP3 (CBR 320kbps)]/08 Water is Life.mp3
               /Users/ed/Desktop/ripper/Ryuichi Sakamoto (хЭВцЬмщ╛Нф╕А) - Futurista (цЬкцЭец┤╛щЗОщГО) (1986) [LAME MP3 (VBR-new quality 5.0)]/08 Water is Life.mp3
    Pre-gap length : 00:00:38
    Track gain             : 2.06 dB
    Peak                   : 0.523315
    CRC32 hash (test run)  : C90C8A1F
    CRC32 hash             : C90C8A1F
    CRC32 hash (skip zero) : B91FEE4E
    AccurateRip signature  : B31245E0
        ->Track not present in AccurateRip database.
    Statistics
        Read error                           : 0
        Skipped (treated as error)           : 0
        Edge jitter error (maybe fixed)      : 0
        Atom jitter error (maybe fixed)      : 0
        Drift error (maybe fixed)            : 0
        Dropped bytes error (maybe fixed)    : 0
        Duplicated bytes error (maybe fixed) : 0
        Inconsistency in error sectors       : 0
Track 09
    Filename : /Users/ed/Desktop/ripper/Ryuichi Sakamoto (хЭВцЬмщ╛Нф╕А) - Futurista (цЬкцЭец┤╛щЗОщГО) (1986) [FLAC (level 5)]/09 Parolibre.flac
               /Users/ed/Desktop/ripper/Ryuichi Sakamoto (хЭВцЬмщ╛Нф╕А) - Futurista (цЬкцЭец┤╛щЗОщГО) (1986) [LAME MP3 (CBR 320kbps)]/09 Parolibre.mp3
               /Users/ed/Desktop/ripper/Ryuichi Sakamoto (хЭВцЬмщ╛Нф╕А) - Futurista (цЬкцЭец┤╛щЗОщГО) (1986) [LAME MP3 (VBR-new quality 5.0)]/09 Parolibre.mp3
    Pre-gap length : 00:02:35
    Track gain             : 5.48 dB
    Peak                   : 0.571411
    CRC32 hash (test run)  : 0E19B395
    CRC32 hash             : 0E19B395
    CRC32 hash (skip zero) : E2AFF7BB
    AccurateRip signature  : 56AC974A
        ->Track not present in AccurateRip database.
    Statistics
        Read error                           : 0
        Skipped (treated as error)           : 0
        Edge jitter error (maybe fixed)      : 0
        Atom jitter error (maybe fixed)      : 0
        Drift error (maybe fixed)            : 0
        Dropped bytes error (maybe fixed)    : 0
        Duplicated bytes error (maybe fixed) : 0
        Inconsistency in error sectors       : 0
Track 10
    Filename : /Users/ed/Desktop/ripper/Ryuichi Sakamoto (хЭВцЬмщ╛Нф╕А) - Futurista (цЬкцЭец┤╛щЗОщГО) (1986) [FLAC (level 5)]/10 G.T..flac
               /Users/ed/Desktop/ripper/Ryuichi Sakamoto (хЭВцЬмщ╛Нф╕А) - Futurista (цЬкцЭец┤╛щЗОщГО) (1986) [LAME MP3 (CBR 320kbps)]/10 G.T..mp3
               /Users/ed/Desktop/ripper/Ryuichi Sakamoto (хЭВцЬмщ╛Нф╕А) - Futurista (цЬкцЭец┤╛щЗОщГО) (1986) [LAME MP3 (VBR-new quality 5.0)]/10 G.T..mp3
    Pre-gap length : 00:02:25
    Track gain             : -3.03 dB
    Peak                   : 0.821136
    CRC32 hash (test run)  : C6C1F0D1
    CRC32 hash             : C6C1F0D1
    CRC32 hash (skip zero) : 8A5AC6D1
    AccurateRip signature  : 1967D8E6
        ->Track not present in AccurateRip database.
    Statistics
        Read error                           : 0
        Skipped (treated as error)           : 0
        Edge jitter error (maybe fixed)      : 0
        Atom jitter error (maybe fixed)      : 0
        Drift error (maybe fixed)            : 0
        Dropped bytes error (maybe fixed)    : 0
        Duplicated bytes error (maybe fixed) : 0
        Inconsistency in error sectors       : 0
No errors occurred
End of status report
 
 
Содержание индексной карты (.CUE)
TITLE "Futurista"
PERFORMER "Ryuichi Sakamoto"
REM GENRE "Electronic"
REM DATE 1986
REM DISCNUMBER 1
REM TOTALDISCS 1
REM DISCID 840A0C0A
FILE "01 - Broadway Boogie Woogie.wav" WAVE
  TRACK 01 AUDIO
    TITLE "Broadway Boogie Woogie"
    PERFORMER "Ryuichi Sakamoto"
    INDEX 01 00:00:00
FILE "02 - Kodo Kogen.wav" WAVE
  TRACK 02 AUDIO
    TITLE "Kodo Kogen"
    PERFORMER "Ryuichi Sakamoto"
    INDEX 01 00:00:00
FILE "03 - Ballet Mecanique.wav" WAVE
  TRACK 03 AUDIO
    TITLE "Ballet Mecanique"
    PERFORMER "Ryuichi Sakamoto"
    INDEX 01 00:00:00
  TRACK 04 AUDIO
    TITLE "G.T. II"
    PERFORMER "Ryuichi Sakamoto"
    INDEX 00 05:08:67
FILE "04 - G.T. II.wav" WAVE
    INDEX 01 00:00:00
  TRACK 05 AUDIO
    TITLE "Milan, 1909"
    PERFORMER "Ryuichi Sakamoto"
    INDEX 00 04:05:40
FILE "05 - Milan, 1909.wav" WAVE
    INDEX 01 00:00:00
FILE "06 - Variety Show.wav" WAVE
  TRACK 06 AUDIO
    TITLE "Variety Show"
    PERFORMER "Ryuichi Sakamoto"
    INDEX 01 00:00:00
FILE "07 - Daikokai - Verso lo Schermo.wav" WAVE
  TRACK 07 AUDIO
    TITLE "Daikokai - Verso lo Schermo"
    PERFORMER "Ryuichi Sakamoto"
    INDEX 01 00:00:00
  TRACK 08 AUDIO
    TITLE "Water Is Life"
    PERFORMER "Ryuichi Sakamoto"
    INDEX 00 05:24:15
FILE "08 - Water Is Life.wav" WAVE
    INDEX 01 00:00:00
  TRACK 09 AUDIO
    TITLE "Parolibre"
    PERFORMER "Ryuichi Sakamoto"
    INDEX 00 01:53:35
FILE "09 - Parolibre.wav" WAVE
    INDEX 01 00:00:00
  TRACK 10 AUDIO
    TITLE "G.T."
    PERFORMER "Ryuichi Sakamoto"
    INDEX 00 03:33:30
FILE "10 - G.T..wav" WAVE
    INDEX 01 00:00:00
 
 
Отчет CUETools
[CUETools log; Date: 23.03.2013 1:00:37; Version: 2.1.4]
[CTDB TOCID: x4ElrVraiC3fBgnc5BeX7QooblI-] disk not present in database.
[AccurateRip ID: 001112fd-00869d4a-840a0c0a] disk not present in database.
Track Peak [ CRC32  ] [W/O NULL]
 --  100,0 [A39C9832] [48B96C9C]
 01   93,7 [1DCBFDEE] [D959AFFC]
 02  100,0 [0CABD0B5] [4451F506]
 03   89,3 [596F41AD] [3C57FE1F]
 04   89,7 [1A7C7BBA] [EFCA053D]
 05   47,5 [EB8300E0] [5140FCA2]
 06  100,0 [86DE7ED4] [CF04EA55]
 07   86,6 [72F37722] [78161960]
 08   52,3 [C90C8A1F] [B91FEE4E]
 09   57,1 [0E19B395] [E2AFF7BB]
 10   82,1 [C6C1F0D1] [8A5AC6D1]
 
 
Состав
Ryuichi Sakamoto - keyboards, piano, vocals
Bernard Fowler - vocals (#1,3,4,10)
Приватный:
Нет (DHT включён)
Размер:
220.65 Мб (231,365,592 байт) » файлов: 19
Участники:
0 раздают, 1 качают (1 участников всего)
Внешние участники:
5 раздают, 1 качают (6 участников всего) [ Обновить ]
No seeders - write a personal message to user M0p94ok. Нет сидеров - пишите личное сообщение пользователю M0p94ok.
00:09
75
Нет комментариев. Ваш будет первым!