Поиск

1986 Egberto Gismonti - Alma {ECM} [CD]

1986 Egberto Gismonti - Alma {ECM} [CD]
Стили:
Дата записи диска:
1986
Место записи:
Dreshsler Studio; Sala Cecilia Meireles; SESC Theatre, Sao Paulo, Brazil; Synth Studio
Дата издания диска:
1986
Номер по каталогу:
064 422965
Носитель:
CD
Тип рипа:
tracks+.cue
Аудиокодек:
FLAC (*.flac)
Битрейт аудио:
lossless
Наличие сканов:
только обложка
Страна-производитель диска (релиза):
Brazil

01 - Baião Malandro   04:16
02 - Palhaço   04:07
03 - Loro   03:58
04 - Maracatu   05:30
05 - Karatê   02:38
06 - Frevo   06:09
07 - Água & Vinho   05:04
08 - Infância
09 - Cigana   04:43
10 - Ruth   07:03
11 - Sanfona [Bonus track]   05:31
12 - Fala da Paixão [Bonus track]   08:26
13 - Realejo [Bonus track]   04:47
14 - 7 Anéis [Bonus track]   08:54

Состав:
  • Egberto Gismonti     Composer, Editing, Synthesizer
  • Eduardo Mello     Engineer
  • Jorge Teixeira     Engineer
  • Nando Carneiro     Synthesizer
Содержание индексной карты (.CUE)
REM COMMENT "Alma - Egberto Gismonti"
PERFORMER "Egberto Gismonti"
TITLE "Alma"
REM DATE 1986
REM GENRE "Brasileira"
FILE "01 Baião Malandro.flac" WAVE
  TRACK 01 AUDIO
    PERFORMER "Egberto Gismonti; Nando Carneiro"
    TITLE "Baião Malandro"
    INDEX 01 00:00:00
FILE "02 Palhaço.flac" WAVE
  TRACK 02 AUDIO
    PERFORMER "Egberto Gismonti; Nando Carneiro"
    TITLE "Palhaço"
    INDEX 01 00:00:00
FILE "03 Loro.flac" WAVE
  TRACK 03 AUDIO
    PERFORMER "Egberto Gismonti"
    TITLE "Loro"
    INDEX 01 00:00:00
FILE "04 Maracatu.flac" WAVE
  TRACK 04 AUDIO
    PERFORMER "Egberto Gismonti; Nando Carneiro"
    TITLE "Maracatu"
    INDEX 01 00:00:00
FILE "05 Karatê.flac" WAVE
  TRACK 05 AUDIO
    PERFORMER "Egberto Gismonti; Nando Carneiro; Edu Mello e Souza"
    TITLE "Karatê"
    INDEX 01 00:00:00
FILE "06 Frevo.flac" WAVE
  TRACK 06 AUDIO
    PERFORMER "Egberto Gismonti; Nando Carneiro"
    TITLE "Frevo"
    INDEX 01 00:00:00
FILE "07 Água & Vinho.flac" WAVE
  TRACK 07 AUDIO
    PERFORMER "Egberto Gismonti; Nando Carneiro"
    TITLE "Água & Vinho"
    INDEX 01 00:00:00
FILE "08 Infância.flac" WAVE
  TRACK 08 AUDIO
    PERFORMER "Egberto Gismonti; Nando Carneiro"
    TITLE "Infância"
    INDEX 01 00:00:00
FILE "09 Cigana.flac" WAVE
  TRACK 09 AUDIO
    PERFORMER "Egberto Gismonti; Nando Carneiro; Valentino"
    TITLE "Cigana"
    INDEX 01 00:00:00
FILE "10 Ruth [Bonus track].flac" WAVE
  TRACK 10 AUDIO
    PERFORMER "Egberto Gismonti"
    TITLE "Ruth [Bonus track]"
    INDEX 01 00:00:00
FILE "11 Sanfona [Bonus track].flac" WAVE
  TRACK 11 AUDIO
    PERFORMER "Egberto Gismonti"
    TITLE "Sanfona [Bonus track]"
    INDEX 01 00:00:00
FILE "12 Fala da Paixão [Bonus track].flac" WAVE
  TRACK 12 AUDIO
    PERFORMER "Egberto Gismonti"
    TITLE "Fala da Paixão [Bonus track]"
    INDEX 01 00:00:00
FILE "13 Realejo [Bonus track].flac" WAVE
  TRACK 13 AUDIO
    PERFORMER "Egberto Gismonti"
    TITLE "Realejo [Bonus track]"
    INDEX 01 00:00:00
FILE "14 7 Anéis [Bonus track].flac" WAVE
  TRACK 14 AUDIO
    PERFORMER "Egberto Gismonti"
    TITLE "7 Anéis [Bonus track]"
    INDEX 01 00:00:00
Скачивание доступно после регистрации!!
Приватный:
Нет (DHT включён)
Размер:
297.68 Мб (312,138,867 байт) » файлов: 26
Участники:
0 раздают, 0 качают (0 участников всего)
Внешние участники:
--- [ Обновить ]
16:29
390
Комментарий удален