Поиск

1986 Earl Klugh - Life Stories {Warner 9 25478-2} [CD]

1986 Earl Klugh - Life Stories {Warner 9 25478-2} [CD]
Издатель (лейбл):
Битрейт аудио:
lossless

Треклист:

01. The Traveler (Earl Klugh) - 4:07
02. Just for Your Love (Alan Abrahams / James Gadson / Clarence McDonald) - 4:13
03. Second Chances (Earl Klugh) - 3:59
04. For the Love of You (Ernie Isley / Marvin Isley / O'Kelly Isley / Ronald Isley / Rudolph Isley) - 3:59
05. Debra Anne (Earl Klugh) - 3:42
06. Santiago Sunset (Earl Klugh) - 4:33
07. Sandman (Earl Klugh) - 4:46
08. Return of the Rainmaker (Earl Klugh) - 6:11
09. Moon and the Stars (Earl Klugh) - 3:32
10. The Traveler, Pt. 2 (Earl Klugh) - 2:45

Состав:
  • Earl Klugh — Guitar (All tracks), Mandolin (9), Keyboards (3, 5)
  • Skip Anderson — Keyboards (8)
  • Crusher Bennett — Percussion (7)
  • Michael Brecker — Saxophone Solo (8)
  • Calvin Bryant — Bass played by (1-2)
  • Vivian Cherry — Background Vocals (2, 4)
  • Gene Dunlap — Drums (1-2, 10), Drum Machine (3, 5)
  • Frank Floyd — Vocals (10, Background on 2, 4)
  • Eric Gale — Additional Guitar (2)
  • Thom Hall — Keyboards (1-2)
  • Bruce Hervey — Finger Snaps (2)
  • Luico Hopper — Bass played by (4, 8)
  • Yvonne Lewis — Background Vocals (2, 4)
  • Jimmy Maelen — Percussion (1, 4, 10)
  • John Mahoney — Synthesizer programming (1)
  • Ray Marchica — Drums (8)
  • Dave Matthews — Orchestra arranger, Orchestra conductor (8)
  • Ullanda McCullough — Background Vocals (2)
  • Greg Phillinganes — Keyboards (1, 10, additional on 3), Synthesizer (4), Bass Synth (5), Finger Snaps (2)
  • Don Sebesky — Conductor (1-2, 4, 6)
  • Richard Tee — Additional Keyboards (2)
  • Eric Weisberg — Pedal Steel Guitar (5)
  • Buddy Williams — Drums (4), Cymbal (3)

Strings arranged by Don Sebesky (1,2,4)
Synthesizer arranged by Greg Phillinganes (1,4)
Rhythm & Synthesizer arranged by Earl Klugh (3)
Additional Synthesizer arranged by Greg Phillinganes (3)
Rhythm arranged by Earl Klugh, Gene Dunlap, Calvin Bryant & Thom Hall (1)
Rhythm arranged by Earl Klugh (4)
Chamber Ensemble arranged by Don Sebesky (6)

Доп. инфо:

Носитель: CD
Страна-производитель диска (релиза): Printed in U.S.A. (On booklet), Made in Japan (On disc)
Год издания оригинала: 1986
Издатель (лейбл): Warner Bros. Records Inc.
Номер по каталогу: 9 25478-2
Страна исполнителя (группы) : U.S.A.
Аудио кодек: FLAC (*.flac)
Тип рипа: (tracks + .cue)
Наличие сканов в содержимом раздачи: full scans, png, 300 dpi
Продолжительность: 44:11
Источник (релизер): Musicgate

Recording Locations:
Atlantic Recording Studios, New York, NY
Mediasound Studios, NY
Sigma Sound Studios, NY
Studio A, MI
United Sound Studios, MI

Лог создания рипа
Exact Audio Copy V1.3 from 2. September 2016
EAC extraction logfile from 4. November 2018, 15:51
Earl Klugh / Life Stories
Used drive  : HL-DT-STDVDRAM GSA-T50N   Adapter: 1  ID: 0
Read mode               : Secure
Utilize accurate stream : Yes
Defeat audio cache      : Yes
Make use of C2 pointers : No
Read offset correction                      : 667
Overread into Lead-In and Lead-Out          : No
Fill up missing offset samples with silence : Yes
Delete leading and trailing silent blocks   : No
Null samples used in CRC calculations       : Yes
Used interface                              : Native Win32 interface for Win NT & 2000
Gap handling                                : Appended to previous track
Used output format              : User Defined Encoder
Selected bitrate                : 1024 kBit/s
Quality                         : High
Add ID3 tag                     : No
Command line compressor         : C:\Program Files\Exact Audio Copy\Flac\flac.exe
Additional command line options : -V -8 -T "Genre=%genre%" -T "Artist=%artist%" -T "Title=%title%" -T "Album=%albumtitle%" -T "Date=%year%" -T "Tracknumber=%tracknr%" %source% -o %dest%
TOC of the extracted CD
     Track |   Start  |  Length  | Start sector | End sector
    ---------------------------------------------------------
        1  |  0:00.37 |  4:04.55 |        37    |    18391
        2  |  4:05.17 |  4:15.33 |     18392    |    37549
        3  |  8:20.50 |  4:01.35 |     37550    |    55659
        4  | 12:22.10 |  6:03.42 |     55660    |    82926
        5  | 18:25.52 |  3:45.38 |     82927    |    99839
        6  | 22:11.15 |  4:37.20 |     99840    |   120634
        7  | 26:48.35 |  4:48.10 |    120635    |   142244
        8  | 31:36.45 |  6:14.10 |    142245    |   170304
        9  | 37:50.55 |  3:34.72 |    170305    |   186426
       10  | 41:25.52 |  2:46.38 |    186427    |   198914
Track  1
     Filename C:\music\MG rips\Earl Klugh - Life Stories - 1986 (Warner Bros. Records 9 25478-2) [FLAC]\01 - The Traveler.wav
     Pre-gap length  0:00:02.37
     Peak level 68.1 %
     Extraction speed 2.5 X
     Track quality 100.0 %
     Test CRC 9CDA3D68
     Copy CRC 9CDA3D68
     Accurately ripped (confidence 10)  [1BC76994]  (AR v2)
     Copy OK
Track  2
     Filename C:\music\MG rips\Earl Klugh - Life Stories - 1986 (Warner Bros. Records 9 25478-2) [FLAC]\02 - Just For Your Love.wav
     Pre-gap length  0:00:01.27
     Peak level 80.3 %
     Extraction speed 2.7 X
     Track quality 100.0 %
     Test CRC 57A205A5
     Copy CRC 57A205A5
     Accurately ripped (confidence 11)  [886987A7]  (AR v2)
     Copy OK
Track  3
     Filename C:\music\MG rips\Earl Klugh - Life Stories - 1986 (Warner Bros. Records 9 25478-2) [FLAC]\03 - Second Chance.wav
     Pre-gap length  0:00:02.20
     Peak level 72.4 %
     Extraction speed 2.9 X
     Track quality 100.0 %
     Test CRC FA0BA022
     Copy CRC FA0BA022
     Accurately ripped (confidence 11)  [9B5CC1B9]  (AR v2)
     Copy OK
Track  4
     Filename C:\music\MG rips\Earl Klugh - Life Stories - 1986 (Warner Bros. Records 9 25478-2) [FLAC]\04 - For the Love of You.wav
     Pre-gap length  0:00:00.35
     Peak level 74.1 %
     Extraction speed 3.0 X
     Track quality 99.9 %
     Test CRC A06E2B55
     Copy CRC A06E2B55
     Accurately ripped (confidence 11)  [32A6670D]  (AR v2)
     Copy OK
Track  5
     Filename C:\music\MG rips\Earl Klugh - Life Stories - 1986 (Warner Bros. Records 9 25478-2) [FLAC]\05 - Debra Anne.wav
     Pre-gap length  0:00:02.42
     Peak level 56.0 %
     Extraction speed 2.9 X
     Track quality 100.0 %
     Test CRC 0E05DA6B
     Copy CRC 0E05DA6B
     Accurately ripped (confidence 11)  [ADE019A7]  (AR v2)
     Copy OK
Track  6
     Filename C:\music\MG rips\Earl Klugh - Life Stories - 1986 (Warner Bros. Records 9 25478-2) [FLAC]\06 - Santiago Sunset.wav
     Pre-gap length  0:00:02.65
     Peak level 58.3 %
     Extraction speed 3.7 X
     Track quality 100.0 %
     Test CRC 18E611ED
     Copy CRC 18E611ED
     Accurately ripped (confidence 11)  [B9A884D3]  (AR v2)
     Copy OK
Track  7
     Filename C:\music\MG rips\Earl Klugh - Life Stories - 1986 (Warner Bros. Records 9 25478-2) [FLAC]\07 - Sandman.wav
     Pre-gap length  0:00:02.15
     Peak level 88.9 %
     Extraction speed 3.4 X
     Track quality 99.9 %
     Test CRC EF13ECDF
     Copy CRC EF13ECDF
     Accurately ripped (confidence 11)  [C1DA43FA]  (AR v2)
     Copy OK
Track  8
     Filename C:\music\MG rips\Earl Klugh - Life Stories - 1986 (Warner Bros. Records 9 25478-2) [FLAC]\08 - Return of the Rainmaker.wav
     Pre-gap length  0:00:01.57
     Peak level 97.4 %
     Extraction speed 3.8 X
     Track quality 99.9 %
     Test CRC 01C2C584
     Copy CRC 01C2C584
     Accurately ripped (confidence 11)  [4BB70073]  (AR v2)
     Copy OK
Track  9
     Filename C:\music\MG rips\Earl Klugh - Life Stories - 1986 (Warner Bros. Records 9 25478-2) [FLAC]\09 - The Moon and the Stars.wav
     Pre-gap length  0:00:01.52
     Peak level 62.5 %
     Extraction speed 4.1 X
     Track quality 100.0 %
     Test CRC EDB66FD6
     Copy CRC EDB66FD6
     Accurately ripped (confidence 11)  [C7EB41AC]  (AR v2)
     Copy OK
Track 10
     Filename C:\music\MG rips\Earl Klugh - Life Stories - 1986 (Warner Bros. Records 9 25478-2) [FLAC]\10 - The Traveller, Part II.wav
     Pre-gap length  0:00:00.27
     Peak level 61.0 %
     Extraction speed 4.0 X
     Track quality 100.0 %
     Test CRC 3A1389E8
     Copy CRC 3A1389E8
     Accurately ripped (confidence 11)  [E3068F55]  (AR v2)
     Copy OK
All tracks accurately ripped
No errors occurred
End of status report
==== Log checksum 970858A7B2E525E49F30C114F1D6C9BF8096EBBA23431623C10D1F03DF80B413 ====
10:11
675
Нет комментариев. Ваш будет первым!