Поиск

1985 George Adams, Don Pullen Quartet - Live at Village Vanguard {Soul Note SN 1094} [CD]

1985 George Adams, Don Pullen Quartet - Live at Village Vanguard {Soul Note SN 1094} [CD]
Стили:
Дата записи диска:
19 августа 1983
Место записи:
Village Vanguard, New York City, NY, USA
Дата издания диска:
31 декабря 1985
Издатель (лейбл):
Номер по каталогу:
SN 1094
Доп. инфо:

Страна-производитель диска: Italy
Год издания диска: 1985
Издатель (лейбл): Soul Note Records
Номер по каталогу: SN 121 094-2
Страна: Italy
Аудио кодек: FLAC (*.flac)
Тип рипа: tracks+.cue
Битрейт аудио: lossless
Продолжительность: 56:14
Источник (релизер): собственный рип с оригинального диска
Наличие сканов в содержимом раздачи: да

Лог создания рипа
Exact Audio Copy V0.99 prebeta 5 from 4. May 2009
EAC extraction logfile from 13. October 2010, 23:26
George Pullen-Don Pullen Quartet / Live at Village Vanguard
Used drive  : TSSTcorpCDDVDW SH-S222A   Adapter: 1  ID: 0
Read mode               : Secure
Utilize accurate stream : Yes
Defeat audio cache      : Yes
Make use of C2 pointers : No
Read offset correction                      : 6
Overread into Lead-In and Lead-Out          : No
Fill up missing offset samples with silence : Yes
Delete leading and trailing silent blocks   : No
Null samples used in CRC calculations       : Yes
Used interface                              : Native Win32 interface for Win NT & 2000
Gap handling                                : Appended to previous track
Used output format              : User Defined Encoder
Selected bitrate                : 768 kBit/s
Quality                         : High
Add ID3 tag                     : No
Command line compressor         : C:\tool\Audio\Exact Audio Copy\FLAC\FLAC.EXE
Additional command line options : -V -8 -T "ARTIST=%a" -T "TITLE=%t" -T "ALBUM=%g" -T "TRACKNUMBER=%n" -T "GENRE=%m" %s
TOC of the extracted CD
     Track |   Start  |  Length  | Start sector | End sector
    ---------------------------------------------------------
        1  |  0:00.00 | 13:19.00 |         0    |    59924
        2  | 13:19.00 | 15:09.00 |     59925    |   128099
        3  | 28:28.00 | 13:13.40 |    128100    |   187614
        4  | 41:41.40 | 14:33.47 |    187615    |   253136
Track  1
     Filename C:\! RUTRACKER\ru up\George Adams_Don Pullen Quartet - Live at Village Vanguard\01 - The Necessary Blues.wav
     Pre-gap length  0:00:02.00
     Peak level 100.0 %
     Track quality 100.0 %
     Test CRC 35C34DF3
     Copy CRC 35C34DF3
     Accurately ripped (confidence 4)  [233E33A6]
     Copy OK
Track  2
     Filename C:\! RUTRACKER\ru up\George Adams_Don Pullen Quartet - Live at Village Vanguard\02 - Solitude.wav
     Pre-gap length  0:00:02.63
     Peak level 100.0 %
     Track quality 100.0 %
     Test CRC 4C912FC0
     Copy CRC 4C912FC0
     Accurately ripped (confidence 4)  [2A52AC67]
     Copy OK
Track  3
     Filename C:\! RUTRACKER\ru up\George Adams_Don Pullen Quartet - Live at Village Vanguard\03 - Intensions.wav
     Pre-gap length  0:00:01.03
     Peak level 100.0 %
     Track quality 100.0 %
     Test CRC 0A14D8BE
     Copy CRC 0A14D8BE
     Accurately ripped (confidence 4)  [BD182857]
     Copy OK
Track  4
     Filename C:\! RUTRACKER\ru up\George Adams_Don Pullen Quartet - Live at Village Vanguard\04 - Diane.wav
     Pre-gap length  0:00:00.25
     Peak level 100.0 %
     Track quality 100.0 %
     Test CRC F5BF3A04
     Copy CRC F5BF3A04
     Accurately ripped (confidence 4)  [40101C4F]
     Copy OK
All tracks accurately ripped
No errors occurred
End of status report
Содержание индексной карты (.CUE)
REM GENRE Jazz
REM DATE 1985
REM DISCID 1E0D2F04
REM COMMENT "ExactAudioCopy v0.99pb5"
CATALOG 0000000000000
PERFORMER "George Pullen-Don Pullen Quartet"
TITLE "Live at Village Vanguard"
FILE "01 - The Necessary Blues.wav" WAVE
  TRACK 01 AUDIO
    TITLE "The Necessary Blues"
    PERFORMER "George Pullen-Don Pullen Quartet"
    FLAGS PRE
    INDEX 01 00:00:00
  TRACK 02 AUDIO
    TITLE "Solitude"
    PERFORMER "George Pullen-Don Pullen Quartet"
    FLAGS PRE
    INDEX 00 13:16:12
FILE "02 - Solitude.wav" WAVE
    INDEX 01 00:00:00
  TRACK 03 AUDIO
    TITLE "Intensions"
    PERFORMER "George Pullen-Don Pullen Quartet"
    FLAGS PRE
    INDEX 00 15:07:72
FILE "03 - Intensions.wav" WAVE
    INDEX 01 00:00:00
  TRACK 04 AUDIO
    TITLE "Diane"
    PERFORMER "George Pullen-Don Pullen Quartet"
    FLAGS PRE
    INDEX 00 13:13:15
FILE "04 - Diane.wav" WAVE
    INDEX 01 00:00:00
No seeders - write personal message to M0p94ok. Any questions - support@pro-jazz.com.
Нет сидеров - пишите в личку M0p94ok. Есть вопросы - support@pro-jazz.com
04:06
220
Нет комментариев. Ваш будет первым!