Поиск

1985 Franco Ambrosetti - Gin and Pentatonic {Enja ENJ-4096 2} [CD]

1985 Franco Ambrosetti - Gin and Pentatonic {Enja ENJ-4096 2} [CD]
Стили:
Издатель (лейбл):
Номер по каталогу:
ENJ-4096 2
Треклист:
01. Miss, Your Quelque Chose (Ambrosetti) - 10:45
02. More Wings for Wheelers (Gruntz) - 4:22
03. Yes or No (Shorter) - 8:10
04. Gin and Pentatonic (Ambrosetti) - 13:16
05. Autumn Leaves (Prevert-Kosma) - 6:17
06. Ode to a Princess (Gruntz) - 10:54
07. Atisiul (Ambrosetti) - 14:35
Состав:

#1,2,4,7 from "Wings":

Recorded at Skyline Studio, New York on December 1-2, 1983.

#3,5,6 from "Tentets":

Recorded at A&R Studio, New York on March 13-14, 1985.

Носитель: CD
Страна-производитель диска: Германия
Год издания: 1992
Страна: США
Аудиокодек: FLAC (*.flac)
Тип рипа: tracks+.cue
Битрейт аудио: lossless
Продолжительность: 68:19
Источник (релизер): Flacmonster (what)
Наличие сканов в содержимом раздачи: да

A reissue of an LP better known as Wings, several bonus tracks are included on this excellent session featuring Michael Brecker (ts), and Kenny Kirkland (p).

Доп. инфо:
 
Лог создания рипа
EAC extraction logfile from 12. December 2005, 21:09 for CD
Franco Ambrosetti / Gin and Pentatonic
Used drive  : PLEXTOR DVDR   PX-712A   Adapter: 1  ID: 0
Read mode   : Secure with NO C2, accurate stream, disable cache
Read offset correction : 30
Overread into Lead-In and Lead-Out : Yes
Used output format : Internal WAV Routines
                     44.100 Hz; 16 Bit; Stereo
Other options      :
    Fill up missing offset samples with silence : Yes
    Delete leading and trailing silent blocks : No
    Native Win32 interface for Win NT & 2000
Track  1
     Filename G:\Flac\01 - Miss, your quelque chose.wav
     Pre-gap length  0:00:02.00
     Peak level 96.4 %
     Track quality 99.9 %
     Test CRC 4155B16B
     Copy CRC 4155B16B
     Copy OK
Track  2
     Filename G:\Flac\02 - More wings for wheelers.wav
     Pre-gap length  0:00:03.29
     Peak level 96.4 %
     Track quality 99.9 %
     Test CRC 221B9185
     Copy CRC 221B9185
     Copy OK
Track  3
     Filename G:\Flac\03 - Yes or no.wav
     Pre-gap length  0:00:03.00
     Peak level 93.9 %
     Track quality 100.0 %
     Test CRC C8328A27
     Copy CRC C8328A27
     Copy OK
Track  4
     Filename G:\Flac\04 - Gin and pentatonic.wav
     Pre-gap length  0:00:02.82
     Peak level 100.0 %
     Track quality 100.0 %
     Test CRC 7369ECF2
     Copy CRC 7369ECF2
     Copy OK
Track  5
     Filename G:\Flac\05 - Autum leaves.wav
     Pre-gap length  0:00:02.69
     Peak level 77.2 %
     Track quality 100.0 %
     Test CRC EC39E744
     Copy CRC EC39E744
     Copy OK
Track  6
     Filename G:\Flac\06 - Ode to a princess.wav
     Pre-gap length  0:00:02.66
     Peak level 85.0 %
     Track quality 100.0 %
     Test CRC EECF1171
     Copy CRC EECF1171
     Copy OK
Track  7
     Filename G:\Flac\07 - Atisiul.wav
     Pre-gap length  0:00:02.53
     Peak level 100.0 %
     Track quality 100.0 %
     Test CRC 28C5F591
     Copy CRC 28C5F591
     Copy OK
No errors occured
End of status report
 
 
Содержание индексной карты (.CUE)
REM GENRE Jazz
REM DATE 1985
REM DISCID 63100307
REM COMMENT "ExactAudioCopy v0.95b3"
PERFORMER "Franco Ambrosetti"
TITLE "Gin and Pentatonic"
FILE "01 - Miss, Your Quelque Chose.wav" WAVE
  TRACK 01 AUDIO
    TITLE "Miss, Your Quelque Chose"
    PERFORMER "Franco Ambrosetti"
    INDEX 01 00:00:00
  TRACK 02 AUDIO
    TITLE "More Wings for Wheelers"
    PERFORMER "Franco Ambrosetti"
    INDEX 00 10:41:40
FILE "02 - More Wings for Wheelers.wav" WAVE
    INDEX 01 00:00:00
  TRACK 03 AUDIO
    TITLE "Yes or No"
    PERFORMER "Franco Ambrosetti"
    INDEX 00 04:19:00
FILE "03 - Yes or No.wav" WAVE
    INDEX 01 00:00:00
  TRACK 04 AUDIO
    TITLE "Gin and Pentatonic"
    PERFORMER "Franco Ambrosetti"
    INDEX 00 08:07:13
FILE "04 - Gin and Pentatonic.wav" WAVE
    INDEX 01 00:00:00
  TRACK 05 AUDIO
    TITLE "Autumn Leaves"
    PERFORMER "Franco Ambrosetti"
    INDEX 00 13:13:23
FILE "05 - Autumn Leaves.wav" WAVE
    INDEX 01 00:00:00
  TRACK 06 AUDIO
    TITLE "Ode to a Princess"
    PERFORMER "Franco Ambrosetti"
    INDEX 00 06:14:25
FILE "06 - Ode to a Princess.wav" WAVE
    INDEX 01 00:00:00
  TRACK 07 AUDIO
    TITLE "Atisiul"
    PERFORMER "Franco Ambrosetti"
    INDEX 00 10:51:35
FILE "07 - Atisiul.wav" WAVE
    INDEX 01 00:00:00
 
 
Отчет CUETools
[CUETools log; Date: 18.04.2014 23:53:01; Version: 2.1.4]
[CTDB TOCID: _1YewxVy9UC.LWID.c2OFwgqquE-] found.
Track | CTDB Status
  1   | (2/2) Accurately ripped
  2   | (2/2) Accurately ripped
  3   | (2/2) Accurately ripped
  4   | (2/2) Accurately ripped
  5   | (2/2) Accurately ripped
  6   | (2/2) Accurately ripped
  7   | (2/2) Accurately ripped
[AccurateRip ID: 00113480-006887ba-63100307] found.
Track   [  CRC   |   V2   ] Status
 01     [a67da4b9|3b48071d] (0+0/1) No match
 02     [4e36bd83|ebc09d42] (0+0/1) No match
 03     [77769c25|04bb378e] (0+0/1) No match
 04     [1256e0ef|e4cc72ef] (0+0/1) No match
 05     [3dd28dfd|18d46992] (0+0/1) No match
 06     [d38df52d|9ca69e45] (0+0/1) No match
 07     [8e6b5a99|a9ae1895] (0+0/1) No match
Offsetted by -2915:
 01     [bf7073c6] (1/1) Accurately ripped
 02     [4479d92f] (1/1) Accurately ripped
 03     [5e01e49d] (1/1) Accurately ripped
 04     [86d106dd] (1/1) Accurately ripped
 05     [79f2d183] (1/1) Accurately ripped
 06     [0ac3d6da] (1/1) Accurately ripped
 07     [9750a641] (1/1) Accurately ripped
Track Peak [ CRC32  ] [W/O NULL] [  LOG   ]
 --  100,0 [9627670B] [9BAF5963]
 01   96,4 [4155B16B] [5E0D9644]   CRC32
 02   96,4 [221B9185] [4213E943]   CRC32
 03   93,9 [C8328A27] [58985CEE]   CRC32
 04  100,0 [7369ECF2] [D8E0756D]   CRC32
 05   77,2 [EC39E744] [55E21215]   CRC32
 06   85,0 [EECF1171] [C9F6E301]   CRC32
 07  100,0 [28C5F591] [E6984F07]   CRC32
07:28
747
Нет комментариев. Ваш будет первым!