Поиск

1984 Mark Nauseef - Wun-Wun {CMP CD25} [CD]

1984 Mark Nauseef - Wun-Wun {CMP CD25} [CD]
Стили:
Треклист:

1. Colotomix 8:55
2. Language 9:47
3. Quilts 10:14
4. Jones 6:13
5. Colotomix II 2:12

CD содержит PRE-EMPHASIS

Состав:
  • Jack Bruce — Voice,Bass
  • Mark Nauseef — Magic Drums, Osi Slit Drums, Marimba, Vacu-Horns, Chinese Opera Gong, Bellowphone, Selnyen, Chime Bars, Kalimba, Reyong, Gender, Aribm, Kempur, Yamaha Ps-1, Voice
  • Trilok Gurtu — Voice
  • Walter Quintus — Violin

Страна-производитель диска: Japan
Год издания: 1984
Издатель (лейбл): CMP Records
Номер по каталогу: CMP CD 25
Страна: U.S.A.
Аудиокодек: FLAC (*.flac)
Тип рипа: image+.cue
Битрейт аудио: lossless
Продолжительность: 37:21
Источник (релизер): Rip с фирменного CD из собственной коллекции.
Наличие сканов в содержимом раздачи: да

Лог создания рипа
Exact Audio Copy V1.3 from 2. September 2016

Отчёт EAC об извлечении, выполненном 15. апреля 2019, 10:56

Mark Nauseef / Wun-Wun - 1984

Дисковод: PIONEER BD-RW   BDR-TD03   Adapter: 1  ID: 0

Режим чтения                 : Достоверность
Использование точного потока : Да
Отключение кэша аудио        : Да
Использование указателей C2  : Нет

Коррекция смещения при чтении                     : 667
Способность читать области Lead-in и Lead-out     : Нет
Заполнение пропущенных сэмплов тишиной            : Да
Удаление блоков с тишиной в начале и конце        : Нет
При вычислениях CRC использовались нулевые сэмплы : Да
Интерфейс                                         : Встроенный Win32-интерфейс для Win NT/2000

Выходной формат          : Пользовательский кодировщик
Выбранный битрейт        : 128 kBit/s
Качество                 : Высокий
Добавление ID3-тега      : Нет
Утилита сжатия           : C:\Program Files (x86)\Exact Audio Copy\Flac\flac.exe
Дополнительные параметры : -V -8 -T "Date=%year%" -T "Genre=%genre%" %source%

TOC извлечённого CD

     Трек |   Старт  | Длительность | Начальный сектор | Конечный сектор
    ---------------------------------------------------------------------
       1  |  0:00.00 |    8:55.12   |           0      |      40136
       2  |  8:55.12 |    9:47.18   |       40137      |      84179
       3  | 18:42.30 |   10:14.22   |       84180      |     130251
       4  | 28:56.52 |    6:13.03   |      130252      |     158229
       5  | 35:09.55 |    2:12.02   |      158230      |     168131

Характеристики диапазона извлечения и сообщения об ошибках

Выбранный диапазон

     Имя файла I:\Rip\Mark Nauseef - Wun-Wun - 1984\Mark Nauseef - Wun-Wun - 1984.wav

     Пиковый уровень 94.6 %
     Скорость извлечения 4.1 X
     Качество диапазона 100.0 %
     CRC теста 5E8603AF
     CRC копии 5E8603AF
     Копирование... OK

Ошибок не произошло

AccurateRip: сводка

Трек  1  : извлечено точно (доверие 3)  [CA25D502]  (AR v1)
Трек  2  : извлечено точно (доверие 3)  [020140DC]  (AR v1)
Трек  3  : извлечено точно (доверие 3)  [9530311A]  (AR v1)
Трек  4  : извлечено точно (доверие 3)  [52573B92]  (AR v1)
Трек  5  : извлечено точно (доверие 3)  [21D139EE]  (AR v1)

Все треки извлечены точно

Конец отчёта

---- CUETools DB Plugin V2.1.6

[CTDB TOCID: SiifGTprabOXwoQrLPZlCz9EZJo-] found
Submit result: SiifGTprabOXwoQrLPZlCz9EZJo- has been confirmed
Track | CTDB Status
  1   | (7/7) Accurately ripped
  2   | (2/7) Accurately ripped, or (2/7) differs in 23 samples @09:46:56-09:46:57
  3   | (7/7) Accurately ripped
  4   | (7/7) Accurately ripped
  5   | (5/7) Accurately ripped

==== Контрольная сумма отчёта CC0B2B851775E1FD516A2F544BCFE61039EE3EA065F046845FFDEF504C9B8D67 ====
Any questions - support@pro-jazz.com
To become a power user - read FAQ.
04:00
497
Нет комментариев. Ваш будет первым!