Вы используете незарегистрированную версию компонента "Вкладки"!

Поиск

1982 Chet Baker, Jim Hall, Hubert Laws - Studio Trieste (2017) {King} [24-192]

1982 Chet Baker, Jim Hall, Hubert Laws - Studio Trieste (2017) {King} [24-192]
Стили:
Издатель (лейбл):
Доп. инфо:

Формат записи/Источник записи: [TR24][OF]
Издание: Remastered
Год издания/переиздания диска: 1982/2017
Продолжительность: 00:38:10
Наличие сканов в содержимом раздачи: Нет

Контейнер: FLAC (*.flac)
Тип рипа: tracks
Разрядность: 24/192
Количество каналов: 2.0

Источник (релизер): e-onkyo

Лог проверки качества
foobar2000 1.4.3 / Dynamic Range Meter 1.1.1
log date: 2020-01-31 19:22:49

--------------------------------------------------------------------------------
Analyzed: Chet Baker, Jim Hall, Hubert Laws / Studio Trieste
--------------------------------------------------------------------------------

DR         Peak         RMS     Duration Track
--------------------------------------------------------------------------------
DR13      -0.11 dB   -16.12 dB      8:43 01-Swan Lake
DR13      -1.81 dB   -17.33 dB      9:45 02-All Blues
DR13      -0.05 dB   -15.70 dB      9:44 03-Malagueña
DR13      -1.07 dB   -17.37 dB     10:02 04-Django
--------------------------------------------------------------------------------

Number of tracks:  4
Official DR value: DR13

Samplerate:        192000 Hz
Channels:          2
Bits per sample:   24
Bitrate:           4639 kbps
Codec:             FLAC
================================================================================
Any questions - support@pro-jazz.com. Есть вопросы - support@pro-jazz.com
15:09
280
Нет комментариев. Ваш будет первым!