Поиск

1982 (1994) Lee Konitz & Michel Petrucciani - Toot Sweet

1982 (1994) Lee Konitz & Michel Petrucciani - Toot Sweet
Дата издания диска:
25 мая 1982
Дата переиздания диска:
29 ноября 1994
Номер по каталогу:
380028-2
Носитель:
CD
Битрейт аудио:
lossless
Аудиокодек:
FLAC (*.flac)
Тип рипа:
image+.cue
Время звучания:
00:31:49
Наличие сканов:
  • web
Релизёр (источник):
hvilon
Треклист:

01. I Hear A Rhapsody (4:44)
02. To Erlinda (5:01)
03. 'Round About Midnight (15:59)
04. Lover Man (15:34)
05. Ode (4:49)
06. Lovelee (2:11)

Состав:
  • Jean-Martial Golaz Engineer
  • Jean-Marie Guérin Engineer
  • Lee Konitz Composer, Sax (Alto)
  • Michel Petrucciani Composer, Piano
  • Jean-Jacques Pussiau Producer
Лог создания рипа
Exact Audio Copy V0.99 prebeta 1 from 25. May 2007
Отчёт EAC об извлечении, выполненном 31. августа 2007, 13:30
Michel Petrucciani & Lee Konitz / Toot Sweet
Дисковод: _NEC DVD_RW ND-4570A Adapter: 1 ID: 1
Режим чтения : Достоверность
Использование точного потока : Да
Отключение кэша аудио : Нет
Использование указателей C2 : Нет
Комбинированное смещение чтения/записи : 0
Способность читать области Lead-in и Lead-out : Нет
Заполнение пропущенных сэмплов тишиной : Да
Удаление блоков с тишиной в начале и конце : Нет
Интерфейс : Установленный внешний ASPI-интерфейс
Обработка зазоров : Не обнаружено, добавлено к предыдущему треку
Выходной формат : Пользовательский кодировщик
Выбранный битрейт : 1024 kBit/s
Качество : Высокий
Добавление ID3-тэга : Да
Утилита сжатия : C:\Program Files\Exact Audio Copy\flac-1.2.0-win\bin\flac.exe
Дополнительные параметры : -8 -V -T "artist=%a" -T "title=%t" -T "album=%g" -T "date=%y" -T "tracknumber=%n" -T "genre=%m" -T "comment=Innochka" %s
TOC извлечённого CD
Трек | Старт | Длительность | Начальный сектор | Конечный сектор
---------------------------------------------------------------------
1 | 0:00.33 | 4:44.22 | 33 | 21354
2 | 4:44.55 | 5:01.03 | 21355 | 43932
3 | 9:45.58 | 15:59.02 | 43933 | 115859
4 | 25:44.60 | 15:34.35 | 115860 | 185944
5 | 41:19.20 | 4:49.20 | 185945 | 207639
6 | 46:08.40 | 2:11.18 | 207640 | 217482
Трек 1
Имя файла G:\Imidg\На будущее\Petrucciani\+Petrucciani & Konitz - Toot Sweet\01 - I Hear A Rhapsody.wav
Пиковый уровень 85.4 %
Качество трека 100.0 %
CRC копии 4ADDBDDD
Копирование... OK
Трек 2
Имя файла G:\Imidg\На будущее\Petrucciani\+Petrucciani & Konitz - Toot Sweet\02 - To Erlinda.wav
Пиковый уровень 79.6 %
Качество трека 100.0 %
CRC копии 0F16AA70
Копирование... OK
Трек 3
Имя файла G:\Imidg\На будущее\Petrucciani\+Petrucciani & Konitz - Toot Sweet\03 - 'Round About Midnight.wav
Пиковый уровень 95.4 %
Качество трека 99.9 %
CRC копии F04C0FEA
Копирование... OK
Трек 4
Имя файла G:\Imidg\На будущее\Petrucciani\+Petrucciani & Konitz - Toot Sweet\04 - Lover Man.wav
Пиковый уровень 84.6 %
Качество трека 100.0 %
CRC копии D92D4311
Копирование... OK
Трек 5
Имя файла G:\Imidg\На будущее\Petrucciani\+Petrucciani & Konitz - Toot Sweet\05 - Ode.wav
Пиковый уровень 79.3 %
Качество трека 100.0 %
CRC копии 5A5C3B5F
Копирование... OK
Трек 6
Имя файла G:\Imidg\На будущее\Petrucciani\+Petrucciani & Konitz - Toot Sweet\06 - Lovelee.wav
Пиковый уровень 91.9 %
Качество трека 100.0 %
CRC копии F9F0D796
Копирование... OK
Ошибок не произошло
Конец отчёта
Приватный:
Нет (DHT включён)
Размер:
241.48 Мб (253,205,195 байт) » файлов: 11
Участники:
0 раздают, 0 качают (0 участников всего)
Внешние участники:
1 раздают, 0 качают (1 участников всего) [ Обновить ]
19:42
122
RSS
Нет комментариев. Ваш будет первым!