Поиск

1981 Piranha - Headed in the Right Direction (2007) {P-Vine PCD-23867} [CD]

1981 Piranha - Headed in the Right Direction (2007) {P-Vine PCD-23867} [CD]
Треклист:

01. Good Time Lady (4:20)
02. Medley: Gonna Take It Up/Take Me Higher (5:29)
03. Headed in the Right Direction (4:19)
04. (Get Up) Let Your Feelings Show (4:18)
05. One-Sided Love (6:05)
06. Let's Get It Back Together (Again) (4:17)
07. Funk-A-Sol (4:45)

Состав:
  • Leonard Stradford — trumpet, flugelhorn, background vocals, percussion, keyboards
  • William Clark — tenor saxophone, alto saxophone, baritone saxophone, flute, background vocals, keyboards
  • George Weaver — drums
  • Lawrence Jones — guitar, background vocals, lead vocals (#1,7)
  • Harold Jones — lead vocals, background vocals, bass

Recorded at River City Recorders, Baton Rouge, LA and Aura Sound Recording Studio, Orlando, FL.

Жанр: Jazz-Funk, Soul
Носитель: CD
Страна-производитель диска (релиза): Япония
Год издания: 1981 (2007)
Издатель (лейбл): P-Vine Records
Номер по каталогу: PCD-23867
Страна исполнителя (группы): США
Аудиокодек: FLAC (*.flac)
Тип рипа: tracks+.cue
Битрейт аудио: lossless
Продолжительность: 00:33:33
Источник: leshafunk
Наличие сканов в содержимом раздачи: сетевые

Лог создания рипа
Exact Audio Copy V1.3 from 2. September 2016

EAC extraction logfile from 30. September 2018, 12:47

Piranha / Headed In The Right Direction

Used drive  : TSSTcorpCDDVDW SH-224DB   Adapter: 1  ID: 0

Read mode               : Secure
Utilize accurate stream : Yes
Defeat audio cache      : Yes
Make use of C2 pointers : No

Read offset correction                      : 6
Overread into Lead-In and Lead-Out          : No
Fill up missing offset samples with silence : Yes
Delete leading and trailing silent blocks   : No
Null samples used in CRC calculations       : Yes
Used interface                              : Native Win32 interface for Win NT & 2000
Gap handling                                : Appended to previous track

Used output format              : User Defined Encoder
Selected bitrate                : 256 kBit/s
Quality                         : High
Add ID3 tag                     : No
Command line compressor         : C:\Program Files\Exact Audio Copy\FLAC\FLAC.EXE
Additional command line options : -8 -V -T "ARTIST=%artist%" -T "TITLE=%title%" -T "ALBUM=%albumtitle%" -T "DATE=%year%" -T "TRACKNUMBER=%tracknr%" -T "TOTALTRACKS=%numtracks%" -T "GENRE=%genre%" -T "ALBUMARTIST=%albumartist%" -T "ALBUM ARTIST=%albumartist%" -T "COMMENT=EAC Secure Mode, Test & Copy, AccurateRip, FLAC -8" %source%

TOC of the extracted CD

     Track |   Start  |  Length  | Start sector | End sector
    ---------------------------------------------------------
        1  |  0:00.00 |  4:20.15 |         0    |    19514
        2  |  4:20.15 |  5:28.40 |     19515    |    44154
        3  |  9:48.55 |  4:19.20 |     44155    |    63599
        4  | 14:08.00 |  4:18.27 |     63600    |    82976
        5  | 18:26.27 |  6:05.27 |     82977    |   110378
        6  | 24:31.54 |  4:17.18 |    110379    |   129671
        7  | 28:48.72 |  4:44.60 |    129672    |   151031

Track  1

     Filename E:\Lossless\Piranha - Headed In The Right Direction (1981) [FLAC] {Japan PCD-23867}\01 - Good Time Lady.wav

     Pre-gap length  0:00:02.00

     Peak level 98.8 %
     Extraction speed 1.9 X
     Track quality 100.0 %
     Test CRC C5D6BD8C
     Copy CRC C5D6BD8C
     Accurately ripped (confidence 3)  [2A447C48]  (AR v2)
     Copy OK

Track  2

     Filename E:\Lossless\Piranha - Headed In The Right Direction (1981) [FLAC] {Japan PCD-23867}\02 - Medley - Gonna Take It Up - Take Me Higher.wav

     Pre-gap length  0:00:02.30

     Peak level 98.8 %
     Extraction speed 2.2 X
     Track quality 100.0 %
     Test CRC C997F1C4
     Copy CRC C997F1C4
     Accurately ripped (confidence 3)  [6FA5ACB2]  (AR v2)
     Copy OK

Track  3

     Filename E:\Lossless\Piranha - Headed In The Right Direction (1981) [FLAC] {Japan PCD-23867}\03 - Headed In The Right Direction.wav

     Pre-gap length  0:00:02.30

     Peak level 98.8 %
     Extraction speed 2.0 X
     Track quality 99.9 %
     Test CRC 7CC2FA3A
     Copy CRC 7CC2FA3A
     Accurately ripped (confidence 3)  [6872ED90]  (AR v2)
     Copy OK

Track  4

     Filename E:\Lossless\Piranha - Headed In The Right Direction (1981) [FLAC] {Japan PCD-23867}\04 - (Get Up) Let Your Feelings Show.wav

     Pre-gap length  0:00:02.30

     Peak level 98.8 %
     Extraction speed 2.5 X
     Track quality 100.0 %
     Test CRC AB6C7133
     Copy CRC AB6C7133
     Accurately ripped (confidence 3)  [443CC60B]  (AR v2)
     Copy OK

Track  5

     Filename E:\Lossless\Piranha - Headed In The Right Direction (1981) [FLAC] {Japan PCD-23867}\05 - One-Sided Love.wav

     Pre-gap length  0:00:02.30

     Peak level 98.8 %
     Extraction speed 2.8 X
     Track quality 100.0 %
     Test CRC 5D3EC3F1
     Copy CRC 5D3EC3F1
     Accurately ripped (confidence 3)  [A2B7866D]  (AR v2)
     Copy OK

Track  6

     Filename E:\Lossless\Piranha - Headed In The Right Direction (1981) [FLAC] {Japan PCD-23867}\06 - Let's Get It Back Together (Again).wav

     Pre-gap length  0:00:02.29

     Peak level 98.8 %
     Extraction speed 2.9 X
     Track quality 100.0 %
     Test CRC 6ACB64B5
     Copy CRC 6ACB64B5
     Accurately ripped (confidence 3)  [DA2C376E]  (AR v2)
     Copy OK

Track  7

     Filename E:\Lossless\Piranha - Headed In The Right Direction (1981) [FLAC] {Japan PCD-23867}\07 - Funk-A-Sol.wav

     Pre-gap length  0:00:02.30

     Peak level 98.8 %
     Extraction speed 3.0 X
     Track quality 100.0 %
     Test CRC EC40F1B2
     Copy CRC EC40F1B2
     Accurately ripped (confidence 3)  [5CFEB14E]  (AR v2)
     Copy OK

All tracks accurately ripped

No errors occurred

End of status report

---- CUETools DB Plugin V2.1.6

[CTDB TOCID: eM0ldfLLmchgMpTyyKCVg0NR8BQ-] found
Submit result: eM0ldfLLmchgMpTyyKCVg0NR8BQ- has been confirmed
Track | CTDB Status
  1   | (8/8) Accurately ripped
  2   | (8/8) Accurately ripped
  3   | (8/8) Accurately ripped
  4   | (8/8) Accurately ripped
  5   | (8/8) Accurately ripped
  6   | (8/8) Accurately ripped
  7   | (8/8) Accurately ripped

==== Log checksum 4E78587402CCB04F6C1516E948271FE7984318F9E097356B951AA5BA075E0D64 ====
Содержание индексной карты (.CUE)
REM GENRE Funk
REM DATE 1981
REM DISCID 4B07DD07
REM COMMENT "ExactAudioCopy v1.3"
PERFORMER "Piranha"
TITLE "Headed in the Right Direction"
FILE "01 - Good Time Lady.wav" WAVE
  TRACK 01 AUDIO
    TITLE "Good Time Lady"
    PERFORMER "Piranha"
    INDEX 01 00:00:00
  TRACK 02 AUDIO
    TITLE "Medley: Gonna Take It Up/Take Me Higher"
    PERFORMER "Piranha"
    INDEX 00 04:17:60
FILE "02 - Medley- Gonna Take It Up,Take Me Higher.wav" WAVE
    INDEX 01 00:00:00
  TRACK 03 AUDIO
    TITLE "Headed in the Right Direction"
    PERFORMER "Piranha"
    INDEX 00 05:26:10
FILE "03 - Headed in the Right Direction.wav" WAVE
    INDEX 01 00:00:00
  TRACK 04 AUDIO
    TITLE "(Get Up) Let Your Feelings Show"
    PERFORMER "Piranha"
    INDEX 00 04:16:65
FILE "04 - (Get Up) Let Your Feelings Show.wav" WAVE
    INDEX 01 00:00:00
  TRACK 05 AUDIO
    TITLE "One-Sided Love"
    PERFORMER "Piranha"
    INDEX 00 04:15:72
FILE "05 - One-Sided Love.wav" WAVE
    INDEX 01 00:00:00
  TRACK 06 AUDIO
    TITLE "Let's Get It Back Together (Again)"
    PERFORMER "Piranha"
    INDEX 00 06:02:73
FILE "06 - Let's Get It Back Together (Again).wav" WAVE
    INDEX 01 00:00:00
  TRACK 07 AUDIO
    TITLE "Funk-A-Sol"
    PERFORMER "Piranha"
    INDEX 00 04:14:63
FILE "07 - Funk-A-Sol.wav" WAVE
    INDEX 01 00:00:00
Лог проверки качества
[CUETools log; Date: 09.02.2019 22:48:36; Version: 2.1.6]
[CTDB TOCID: eM0ldfLLmchgMpTyyKCVg0NR8BQ-] found.
Track | CTDB Status
  1   | (9/9) Accurately ripped
  2   | (9/9) Accurately ripped
  3   | (9/9) Accurately ripped
  4   | (9/9) Accurately ripped
  5   | (9/9) Accurately ripped
  6   | (9/9) Accurately ripped
  7   | (9/9) Accurately ripped
[AccurateRip ID: 00092cf2-003738c7-4b07dd07] found.
Track   [  CRC   |   V2   ] Status
 01     [832cc11c|2a447c48] (0+4/4) Accurately ripped
 02     [81843b44|6fa5acb2] (0+4/4) Accurately ripped
 03     [c8ba002e|6872ed90] (0+4/4) Accurately ripped
 04     [4b2711a5|443cc60b] (0+4/4) Accurately ripped
 05     [383ad937|a2b7866d] (0+4/4) Accurately ripped
 06     [93b40015|da2c376e] (0+4/4) Accurately ripped
 07     [00335e49|5cfeb14e] (0+4/4) Accurately ripped

Track Peak [ CRC32  ] [W/O NULL] [  LOG   ]
 --   98,8 [ADFF67AC] [7C351A4E]
 01   98,8 [C5D6BD8C] [54FEDC0E]   CRC32
 02   98,8 [C997F1C4] [D82CD345]   CRC32
 03   98,8 [7CC2FA3A] [2CF4F473]   CRC32
 04   98,8 [AB6C7133] [4CCB867D]   CRC32
 05   98,8 [5D3EC3F1] [BD634AFB]   CRC32
 06   98,8 [6ACB64B5] [653B1B33]   CRC32
 07   98,8 [EC40F1B2] [8DCD0145]   CRC32
Download available for power users only.
20:38
340
Нет комментариев. Ваш будет первым!