Вы используете незарегистрированную версию компонента "Вкладки"!

Поиск

1981 Gary Burton Quartet - Easy As Pie (2019) {ECM} [24-96]

1981 Gary Burton Quartet - Easy As Pie (2019) {ECM} [24-96]
Стили:
Дата записи диска:
июнь 1980
Место записи:
Tonstudio Bauer, Ludwigsburg
Издатель (лейбл):
Доп. инфо:

Формат записи/Источник записи: [TR24][OF]
Наличие водяных знаков: Нет
Год издания/переиздания диска: 1981/2019
Продолжительность: 00:48:05
Наличие сканов в содержимом раздачи: Нет

Контейнер: FLAC (*.flac)
Тип рипа: tracks
Разрядность: 24/96
Формат: WAV (flac.ape.wv)
Количество каналов: 2.0

Источник (релизер): https://www.qobuz.com/gb-en/album/easy-as-pie-gary-burton-quartet/k0xrvm15cl5cc

Лог проверки качества
foobar2000 1.3.7 / Dynamic Range Meter 1.1.1
log date: 2019-08-02 02:29:38

--------------------------------------------------------------------------------
Analyzed: Gary Burton / Easy As Pie
--------------------------------------------------------------------------------

DR         Peak         RMS     Duration Track
--------------------------------------------------------------------------------
DR12      -0.96 dB   -16.67 dB     11:49 01-Reactionary Tango
DR11      -0.70 dB   -15.11 dB      5:37 02-Tweek
DR12      -5.03 dB   -22.96 dB      5:46 03-Blame It On My Youth
DR12      -1.89 dB   -16.91 dB      7:50 04-Summer Band Camp
DR11      -1.50 dB   -16.85 dB      8:09 05-Isfahan
DR12      -0.71 dB   -17.20 dB      8:57 06-Stardancer
--------------------------------------------------------------------------------

Number of tracks:  6
Official DR value: DR12

Samplerate:        96000 Hz
Channels:          2
Bits per sample:   24
Bitrate:           2924 kbps
Codec:             FLAC
================================================================================
Any questions - support@pro-jazz.com. Есть вопросы - support@pro-jazz.com
23:31
341
Нет комментариев. Ваш будет первым!