Вы используете незарегистрированную версию компонента "Вкладки"!

Поиск

1981 Contact Trio - Musik (2019) {ECM, Japo 60036} [24-96]

1981 Contact Trio - Musik (2019) {ECM, Japo 60036} [24-96]
Стили:
Дата записи диска:
октябрь 1980
Место записи:
Tonstudio Bauer, Ludwigsburg
Дата издания диска:
1981
Дата переиздания диска:
2 августа 2019
Издатель (лейбл):
Номер по каталогу:
Japo 60036
Носитель:
WEB
Формат:
PCM
Тип рипа:
tracks+.cue
Контейнер:
FLAC (*.flac)
Количество каналов:
2.0
Разрядность/ЧД:
24/96
Время звучания:
00:43:15
Наличие сканов:
web
Страна-производитель диска (релиза):
Germany
Релизёр (источник):
M0p94ok
Лог проверки качества
foobar2000 1.3.7 / Dynamic Range Meter 1.1.1
log date: 2019-08-02 02:02:50

--------------------------------------------------------------------------------
Analyzed: Contact Trio / Musik
--------------------------------------------------------------------------------

DR         Peak         RMS     Duration Track
--------------------------------------------------------------------------------
DR12      -2.42 dB   -19.33 dB      8:23 01-Air Lines
DR15      -1.40 dB   -21.48 dB      8:38 02-String Games
DR12      -1.37 dB   -16.79 dB      3:41 03-Daddy Longleg
DR12      -0.73 dB   -16.93 dB      9:02 04-Simple Symphony
DR12      -2.49 dB   -20.43 dB      7:26 05-Silence
DR12      -0.95 dB   -17.12 dB      6:08 06-Elbow Dance
--------------------------------------------------------------------------------

Number of tracks:  6
Official DR value: DR12

Samplerate:        96000 Hz
Channels:          2
Bits per sample:   24
Bitrate:           2990 kbps
Codec:             FLAC
================================================================================
Any questions - support@pro-jazz.com. Есть вопросы - support@pro-jazz.com
01:02
255
Нет комментариев. Ваш будет первым!