Поиск

1981 (1998) Art Blakey and Jazz Messengers - Live at Montreux and Northsea

1981 (1998) Art Blakey and Jazz Messengers - Live at Montreux and Northsea
Страна-производитель диска (релиза):
Netherlands
Дата записи диска:
13 и 17 июля 1980
Дата издания диска:
1981
Дата переиздания диска:
1998
Издатель (лейбл):
Номер по каталогу:
SJP 150
Носитель:
CD
Битрейт аудио:
lossless
Аудиокодек:
WavPack (*.wv)
Тип рипа:
image+.cue
Время звучания:
43:07
Наличие сканов:
  • да
Релизёр (источник):
mironov_ad
Треклист:
  1. "Minor Thesis" (James Williams) – 13:17
  2. "Wheel Within a Wheel" – 7:02
  3. "Bit a Bittadose" – 6:41
  4. "Stairway to the Stars" (Matty Malneck, Mitchell Parish, Frank Signorelli) – 8:34
  5. "Linwood" – 7:31

Все композиции написаны Бобби Уотсоном (Bobby Watson) за исключением указанных отдельно.

Альбом записан во время редкого тура Blakey с большой группой из 11 музыкантов (многие из которых были очень молоды; Wynton Marsalis тогда было 18, например). Записи были сделаны на North Sea Jazz Festival в The Hague, the Netherlands 13 июля 1980 (1) и на Montreux Jazz Festival в Montreux, Switzerland 17 июля 1980 (2–5)

Состав:
  • Art Blakey, John Ramsey – drums
  • Valery Ponomarev, Wynton Marsalis – trumpet
  • Robin Eubanks – trombone
  • Bobby Watson – alto saxophone
  • Branford Marsalis – alto saxophone, baritone saxophone
  • Bill Pierce – tenor saxophone
  • James Williams – piano
  • Kevin Eubanks – guitar
  • Charles Fambrough – bass
  • Producer Wim Wigt
Лог создания рипа
<spoiler title="Лог создания рипа"><pre>EAC extraction logfile from 3. November 2006, 21:56 for CD
Art Blakey And The Jazz Messengers / Live at Montreux And Northsea
Used drive : PLEXTOR DVDR PX-755A Adapter: 1 ID: 0
Read mode : Secure with NO C2, accurate stream, disable cache
Read offset correction : 30
Overread into Lead-In and Lead-Out : No
Used output format : Internal WAV Routines
44.100 Hz; 16 Bit; Stereo
Use compression offset : 30
Other options :
Fill up missing offset samples with silence : Yes
Delete leading and trailing silent blocks : No
Installed external ASPI interface
Range status and errors
Selected range
Filename D:\Rip\Art Blakey And The Jazz Messengers - Live at Montreux And Northsea.wav
Peak level 100.0 %
Range quality 100.0 %
CRC 698BF48A
Copy OK
No errors occured
End of status report</pre></spoiler>
Лог проверки качества
<spoiler title="Отчет CueTools"><pre>[CUETools log; Date: 24.06.2011 0:25:58; Version: 2.1.1]
[CTDB TOCID: cWCaEt43yVsGlhoMFQ4s2JsxZXE-] disk not present in database.
[AccurateRip ID: 000991fc-002b6cfa-3c0a1b05] found.
Track [ CRC ] Status 01 [561a6b3f] (0/2) No match 02 [5616234f] (0/2) No match 03 [18c972cc] (0/2) No match 04 [5c8f9055] (0/2) No match 05 [fbb905ff] (0/2) No match
Offsetted by 659: 01 [8f361dcf] (2/2) Accurately ripped 02 [0d487187] (2/2) Accurately ripped 03 [58d3bc25] (2/2) Accurately ripped 04 [21ad2ea2] (2/2) Accurately ripped 05 [9b13d458] (2/2) Accurately ripped
Track Peak [ CRC32 ] [W/O NULL] [ LOG ] -- 100,0 [865B381B] [698BF48A] W/O NULL 01 93,2 [3D892910] [C462F526] 02 100,0 [93CE9362] [1923F24C] 03 97,7 [624D5E7B] [D029FC5F] 04 92,7 [0E6F7913] [ECC871F6] 05 98,2 [9777249E] [C864BE47]</pre></spoiler>
Приватный:
Нет (DHT включён)
Размер:
277.45 Мб (290,925,179 байт) » файлов: 6
Участники:
0 раздают, 0 качают (0 участников всего)
Внешние участники:
1 раздают, 0 качают (1 участников всего) [ Обновить ]
23:05
126
RSS
Нет комментариев. Ваш будет первым!