Поиск

1981 (1995) Art Pepper & Zoot Sims - Art 'N' Zoot (Live) {Pablo CD 2310 957-2}

1981 (1995) Art Pepper & Zoot Sims - Art 'N' Zoot (Live) {Pablo CD 2310 957-2}
Стили:
Страна-производитель диска (релиза):
USA
Дата записи диска:
27 сентября 1981
Дата издания диска:
1981
Дата переиздания диска:
2 октября 1995
Издатель (лейбл):
Номер по каталогу:
CD 2310 957-2
Носитель:
CD
Битрейт аудио:
lossless
Аудиокодек:
FLAC (*.flac)
Тип рипа:
tracks
Время звучания:
55:31
Наличие сканов:
  • да
Релизёр (источник):
Stormhunter
Треклист:

1. Wee (Allen's Alley) 7:39
2. Over the Rainbow 10:28
3. In the Middle of a Kiss 8:51
4. Broadway 6:29
5. The Girl From Ipanema 10:31
6. Breakdown Blues 10:01

Состав:
  • Ray Brown    Bass
  • Michael Cuscuna    Liner Notes
  • Victor Feldman    Piano
  • Charlie Haden    Bass
  • Billy Higgins    Drums
  • Barney Kessel    Guitar
  • Tim Owens    Producer
  • Art Pepper    Composer, Sax (Alto)
  • Zoot Sims    Composer, Sax (Tenor)

Записано в 

  • Royce Hall, University of CA, Los Angeles, CA
EAC extraction logfile from 8. August 2007, 23:54 for CD
Art Pepper - Zoot Sims / Art 'N' Zoot

Used drive : HL-DT-STCDRW/DVD GCC4482 Adapter: 1 ID: 0
Read mode : Secure with NO C2, accurate stream, disable cache
Read offset correction : 6
Overread into Lead-In and Lead-Out : No

Used output format : C:\Eac\Codecs\flac.exe (User Defined Encoder)
320 kBit/s
Additional command line options : -8 -V -T "artist=%a" -T "title=%t" -T "album=%g" -T "date=%y" -T "tracknumber=%n" -T "genre=%m" -T "comment=EAC Flac 1.1.2 -8" %s

Other options :
Fill up missing offset samples with silence : Yes
Delete leading and trailing silent blocks : No
Installed external ASPI interface

Track 1
Filename C:\Documents and Settings\Desktop\artzoot\01 - Wee (Allen's Alley).wav

Pre-gap length 0:00:02.00

Peak level 100.0 %
Track quality 100.0 %
Test CRC 5A4FD557
Copy CRC 5A4FD557
Copy OK

Track 2
Filename C:\Documents and Settings\Desktop\artzoot\02 - Over The Rainbow.wav

Peak level 59.0 %
Track quality 100.0 %
Test CRC B391229A
Copy CRC B391229A
Copy OK

Track 3
Filename C:\Documents and Settings\Desktop\artzoot\03 - In The Middle Of A Kiss.wav

Peak level 95.1 %
Track quality 100.0 %
Test CRC 6502F527
Copy CRC 6502F527
Copy OK

Track 4
Filename C:\Documents and Settings\Desktop\artzoot\04 - Broadway.wav

Peak level 99.7 %
Track quality 100.0 %
Test CRC 1A44C06C
Copy CRC 1A44C06C
Copy OK

Track 5
Filename C:\Documents and Settings\Desktop\artzoot\05 - The Girl From Ipanema.wav

Peak level 100.0 %
Track quality 100.0 %
Test CRC 6B9F4BD4
Copy CRC 6B9F4BD4
Copy OK

Track 6
Filename C:\Documents and Settings\Desktop\artzoot\06 - Breakdown Blues.wav

Peak level 100.0 %
Track quality 100.0 %
Test CRC B63A511C
Copy CRC B63A511C
Copy OK

No errors occured

End of status report
Приватный:
Нет (DHT включён)
Размер:
326.74 Мб (342,611,650 байт) » файлов: 17
Участники:
0 раздают, 0 качают (0 участников всего)
Внешние участники:
1 раздают, 0 качают (1 участников всего) [ Обновить ]
Скорость:
Торрент не зарегистрирован на трекере
20:14
65
RSS
Нет комментариев. Ваш будет первым!