Поиск

1980 Steve Tibbetts - Yr (2018) {ECM} [24-88,2]

1980 Steve Tibbetts - Yr (2018) {ECM} [24-88,2]
Стили:
Издатель (лейбл):

Треклист:

Формат записи/Источник записи: [TR24][OF]
Наличие водяных знаков: Нет
Издание: Remastered
Год издания/переиздания диска: 1980/1988/2018
Продолжительность: 38:22
Наличие сканов в содержимом раздачи: Только обложка альбома
Контейнер: FLAC (*.flac)
Тип рипа: tracks
Разрядность: 24/88,2
Формат: PCM
Количество каналов: 2.0
Источник: qobuz.com

Треклист:
01. Ur (4:46)
02. Sphexes (3:50)
03. Ten Years (7:44)
04. One Day (2:25)
05. Three Primates (5:08)
06. You And It (7:24)
07. The Alien Lounge (3:45)
08. Ten Yr Dance (3:20)
 

 
Лог проверки качества
foobar2000 1.3.9 / Dynamic Range Meter 1.1.1
log date: 2018-06-09 10:00:42
--------------------------------------------------------------------------------
Analyzed: Steve Tibbetts / Yr
--------------------------------------------------------------------------------
DR         Peak         RMS     Duration Track
--------------------------------------------------------------------------------
DR10      -0.60 dB   -15.08 dB      4:46 01-Ur
DR13      -0.98 dB   -18.22 dB      3:50 02-Sphexes
DR13      -0.56 dB   -16.17 dB      7:44 03-Ten Years
DR11      -5.09 dB   -20.14 dB      2:25 04-One Day
DR12      -1.09 dB   -18.09 dB      5:08 05-Three Primates
DR12      -0.62 dB   -18.21 dB      7:24 06-You And It
DR13      -2.57 dB   -18.33 dB      3:45 07-The Alien Lounge
DR12      -3.61 dB   -19.45 dB      3:20 08-Ten Yr Dance
--------------------------------------------------------------------------------
Number of tracks:  8
Official DR value: DR12
Samplerate:        88200 Hz
Channels:          2
Bits per sample:   24
Bitrate:           2810 kbps
Codec:             FLAC
================================================================================

 

Состав:
  • Steve Tibbetts - guitars, kalimba, synthesizer
  • Marc Anderson - congas, drums, percussion
  • Bob Hughes - bass
  • Steve Cochrane - tabla
  • Marcus Wise - tabla
  • Tim Weinhold - bongos, vase, bells

Rec.: Minneapolis, 1980.

Download available for power users only.
To become a power user - read FAQ.
12:58
636
Нет комментариев. Ваш будет первым!