Вы используете незарегистрированную версию компонента "Вкладки"!

Поиск

1980 John Scofield - Bar Talk (2016) {Arista/Sony SICJ 150} [CD]

1980 John Scofield - Bar Talk (2016) {Arista/Sony SICJ 150} [CD]
Стили:
Дата записи диска:
август 1980
Место записи:
Celebration Studios, New York
Дата издания диска:
1980
Дата переиздания диска:
2016
Издатель (лейбл):
Номер по каталогу:
SICJ 150
Носитель:
CD
Тип рипа:
tracks
Аудиокодек:
FLAC (*.flac)
Битрейт аудио:
lossless
Время звучания:
39:17
Страна-производитель диска (релиза):
USA
Релизёр (источник):
Kellops
Лог создания рипа
X Lossless Decoder version 20170729 (150.3)

XLD extraction logfile from 2018-10-03 17:22:54 +0100

John Scofield / Bar Talk

Used drive : Optiarc DVD RW AD-7560S (revision SX07)
Media type : Pressed CD

Ripper mode             : XLD Secure Ripper
Disable audio cache     : OK for the drive with a cache less than 1375KiB
Make use of C2 pointers : NO
Read offset correction  : 6
Max retry count         : 20
Gap status              : Analyzed, Appended (except HTOA)

TOC of the extracted CD
     Track |   Start  |  Length  | Start sector | End sector
    ---------------------------------------------------------
        1  | 00:00:00 | 07:03:30 |         0    |    31754
        2  | 07:03:30 | 06:11:58 |     31755    |    59637
        3  | 13:15:13 | 06:49:12 |     59638    |    90324
        4  | 20:04:25 | 06:36:62 |     90325    |   120086
        5  | 26:41:12 | 06:56:33 |    120087    |   151319
        6  | 33:37:45 | 05:40:19 |    151320    |   176838

AccurateRip Summary
    Disc not found in AccurateRip DB.

All Tracks
    Album gain               : -4.40 dB
    Peak                     : 1.000000
    Statistics
        Read error                           : 0
        Jitter error (maybe fixed)           : 0
        Retry sector count                   : 0
        Damaged sector count                 : 0

Track 01
    Filename : /Users/paulocorreia/Desktop/CD/John Scofield - Bar Talk (1980) [FLAC]/01 Beckon Call.flac
    Pre-gap length : 00:02:00

    Track gain               : -3.18 dB
    Peak                     : 1.000000
    CRC32 hash (test run)    : 75516441
    CRC32 hash               : 75516441
    CRC32 hash (skip zero)   : 90E10CF7
    AccurateRip v1 signature : D1594BEF
    AccurateRip v2 signature : B5283471
        ->Track not present in AccurateRip database.
    Statistics
        Read error                           : 0
        Jitter error (maybe fixed)           : 0
        Retry sector count                   : 0
        Damaged sector count                 : 0

Track 02
    Filename : /Users/paulocorreia/Desktop/CD/John Scofield - Bar Talk (1980) [FLAC]/02 New Strings Attached.flac
    Pre-gap length : 00:02:48

    Track gain               : -5.47 dB
    Peak                     : 1.000000
    CRC32 hash (test run)    : D8213B5D
    CRC32 hash               : D8213B5D
    CRC32 hash (skip zero)   : 3921ECA8
    AccurateRip v1 signature : A563CA36
    AccurateRip v2 signature : BF4F1BDC
        ->Track not present in AccurateRip database.
    Statistics
        Read error                           : 0
        Jitter error (maybe fixed)           : 0
        Retry sector count                   : 0
        Damaged sector count                 : 0

Track 03
    Filename : /Users/paulocorreia/Desktop/CD/John Scofield - Bar Talk (1980) [FLAC]/03 Never.flac
    Pre-gap length : 00:03:31

    Track gain               : -3.11 dB
    Peak                     : 1.000000
    CRC32 hash (test run)    : AD868645
    CRC32 hash               : AD868645
    CRC32 hash (skip zero)   : 7C561B6E
    AccurateRip v1 signature : BFB542CE
    AccurateRip v2 signature : 7794C974
        ->Track not present in AccurateRip database.
    Statistics
        Read error                           : 0
        Jitter error (maybe fixed)           : 0
        Retry sector count                   : 0
        Damaged sector count                 : 0

Track 04
    Filename : /Users/paulocorreia/Desktop/CD/John Scofield - Bar Talk (1980) [FLAC]/04 How To Marry A Millionaire.flac
    Pre-gap length : 00:03:33

    Track gain               : -5.21 dB
    Peak                     : 1.000000
    CRC32 hash (test run)    : 922FE853
    CRC32 hash               : 922FE853
    CRC32 hash (skip zero)   : 96863FA6
    AccurateRip v1 signature : 11274D49
    AccurateRip v2 signature : EA026ECE
        ->Track not present in AccurateRip database.
    Statistics
        Read error                           : 0
        Jitter error (maybe fixed)           : 0
        Retry sector count                   : 0
        Damaged sector count                 : 0

Track 05
    Filename : /Users/paulocorreia/Desktop/CD/John Scofield - Bar Talk (1980) [FLAC]/05 Fat Dancer.flac
    Pre-gap length : 00:02:73

    Track gain               : -4.04 dB
    Peak                     : 1.000000
    CRC32 hash (test run)    : EE7AA42E
    CRC32 hash               : EE7AA42E
    CRC32 hash (skip zero)   : D4814350
    AccurateRip v1 signature : 63A7254A
    AccurateRip v2 signature : B92D262B
        ->Track not present in AccurateRip database.
    Statistics
        Read error                           : 0
        Jitter error (maybe fixed)           : 0
        Retry sector count                   : 0
        Damaged sector count                 : 0

Track 06
    Filename : /Users/paulocorreia/Desktop/CD/John Scofield - Bar Talk (1980) [FLAC]/06 Nature Calls.flac
    Pre-gap length : 00:03:73

    Track gain               : -3.44 dB
    Peak                     : 1.000000
    CRC32 hash (test run)    : E4F70C52
    CRC32 hash               : E4F70C52
    CRC32 hash (skip zero)   : C2233197
    AccurateRip v1 signature : BD037CE0
    AccurateRip v2 signature : F199349B
        ->Track not present in AccurateRip database.
    Statistics
        Read error                           : 0
        Jitter error (maybe fixed)           : 0
        Retry sector count                   : 0
        Damaged sector count                 : 0

No errors occurred

End of status report

-----BEGIN XLD SIGNATURE-----
TnwSCm2wAdtz1N7rD33mQZuqhwG4w5D3IG8.0E1svCAfHieyGJfX.4mNiQcUszwZqjaqeAGT_ZZ8ujrR42HfKbgq9Lv5AGGtQ0ewo8e
-----END XLD SIGNATURE-----
Содержание индексной карты (.CUE)
TITLE "Bar Talk"
PERFORMER "John Scofield"
REM GENRE "Jazz"
REM DATE "1980"
REM DISCID 43093506
REM REPLAYGAIN_ALBUM_GAIN -4.40 dB
REM REPLAYGAIN_ALBUM_PEAK 1.000000
FILE "01 - Beckon Call.flac" WAVE
  TRACK 01 AUDIO
    TITLE "Beckon Call"
    ISRC USBB10500255
    REM REPLAYGAIN_TRACK_GAIN -3.18 dB
    REM REPLAYGAIN_TRACK_PEAK 1.000000
    INDEX 01 00:00:00
  TRACK 02 AUDIO
    TITLE "New Strings Attached"
    ISRC USBB10500257
    REM REPLAYGAIN_TRACK_GAIN -5.47 dB
    REM REPLAYGAIN_TRACK_PEAK 1.000000
    INDEX 00 07:00:57
FILE "02 - New Strings Attached.flac" WAVE
    INDEX 01 00:00:00
  TRACK 03 AUDIO
    TITLE "Never"
    ISRC USBB10700095
    REM REPLAYGAIN_TRACK_GAIN -3.11 dB
    REM REPLAYGAIN_TRACK_PEAK 1.000000
    INDEX 00 06:08:27
FILE "03 - Never.flac" WAVE
    INDEX 01 00:00:00
  TRACK 04 AUDIO
    TITLE "How to Marry a Millionaire"
    ISRC USBB10500256
    REM REPLAYGAIN_TRACK_GAIN -5.21 dB
    REM REPLAYGAIN_TRACK_PEAK 1.000000
    INDEX 00 06:45:54
FILE "04 - How to Marry a Millionaire.flac" WAVE
    INDEX 01 00:00:00
  TRACK 05 AUDIO
    TITLE "Fat Dancer"
    ISRC USBB10500254
    REM REPLAYGAIN_TRACK_GAIN -4.04 dB
    REM REPLAYGAIN_TRACK_PEAK 1.000000
    INDEX 00 06:33:64
FILE "05 - Fat Dancer.flac" WAVE
    INDEX 01 00:00:00
  TRACK 06 AUDIO
    TITLE "Nature Calls"
    ISRC USBB10700096
    REM REPLAYGAIN_TRACK_GAIN -3.44 dB
    REM REPLAYGAIN_TRACK_PEAK 1.000000
    INDEX 00 06:52:35
FILE "06 - Nature Calls.flac" WAVE
    INDEX 01 00:00:00
Лог проверки качества
[CUETools log; Date: 04.10.2018 2:24:07; Version: 2.1.5]
[CTDB TOCID: I2mINEaU4K3hvLy9ZNtNLKmp7Wc-] found.
Track | CTDB Status
  1   | (15/15) Accurately ripped
  2   | (15/15) Accurately ripped
  3   | (15/15) Accurately ripped
  4   | (15/15) Accurately ripped
  5   | (15/15) Accurately ripped
  6   | (15/15) Accurately ripped
[AccurateRip ID: 00099ccc-00331dc1-43093506] disk not present in database.

Track Peak [ CRC32  ] [W/O NULL]
 --  100,0 [3D4FA2B8] [BF68CB0F]
 01  100,0 [75516441] [90E10CF7]
 02  100,0 [D8213B5D] [3921ECA8]
 03  100,0 [AD868645] [7C561B6E]
 04  100,0 [922FE853] [96863FA6]
 05  100,0 [EE7AA42E] [D4814350]
 06  100,0 [E4F70C52] [C2233197]
Any questions - support@pro-jazz.com. Есть вопросы - support@pro-jazz.com
23:04
312
Нет комментариев. Ваш будет первым!