Поиск

1979 Donald Byrd - Chant (2012) {Blue Note, EMI 0689564} [WEB]

1979 Donald Byrd - Chant (2012) {Blue Note, EMI 0689564} [WEB]
Стили:
Страна-производитель диска (релиза):
Japan
Дата записи диска:
17 апреля 1961
Место записи:
Van Gelder Studio, Englewood Cliffs
Дата издания диска:
1979
Дата переиздания диска:
2012
Издатель (лейбл):
Номер по каталогу:
0689564
Носитель:
WEB
Аудиокодек:
FLAC (*.flac)
Тип рипа:
tracks
Битрейт аудио:
lossless
Время звучания:
44:57
Наличие сканов:
только обложка

Треклист:

01. I'm an Old Cowhand from the Rio Grande" – 7:39
02. You're Next – 7:25
03. Chant – 8:50
04. That's All – 9:33
05. Great God – 6:58
06. Sophisticated Lady – 4:32

 
DRM.log

foobar2000 1.4.3 / Dynamic Range Meter 1.1.1
log date: 2019-05-14 13:15:57

--------------------------------------------------------------------------------
Analyzed: Donald Byrd;Pepper Adams;Herbie Hancock;Doug Watkins;Teddy Robinson / Chant (1-2)
          Donald Byrd;Pepper Adams;Lex Humphries;Duke Pearson;Laymon Jackson / Chant (3)
          Donald Byrd / Chant (4-6)
--------------------------------------------------------------------------------

DR         Peak         RMS     Duration Track
--------------------------------------------------------------------------------
DR11      -0.10 dB   -13.87 dB      7:38 01-I'm An Old Cowhand
DR13      -0.06 dB   -15.20 dB      4:34 06-Sophisticated Lady
DR12      -0.01 dB   -16.00 dB      8:54 03-Chant
DR13      -0.04 dB   -16.46 dB      7:23 02-You're Next
DR10       0.00 dB   -12.80 dB      9:35 04-That's All
DR11      -0.01 dB   -14.53 dB      7:00 05-Great God
--------------------------------------------------------------------------------

Number of tracks:  6
Official DR value: DR12

Samplerate:        44100 Hz
Channels:          2
Bits per sample:   16
Bitrate:           914 kbps
Codec:             FLAC
================================================================================

Лог проверки качества
CUE Corrector v. 8.3.5 / b. 913 (Apr. 22, 2019)
————————————————————————————————————————————————————————————————————————
Donald Byrd / Chant

Folder: 2014 Donald Byrd - Chant
Audio files:
    1. Donald Byrd - I'm An Old Cowhand.flac [07:37.800; FLAC • 1007 kbps • 16 bit \ 44100 Hz • stereo; 54.98 MB (57 650 360 B)]
    2. Donald Byrd - You're Next.flac [07:22.720; FLAC • 873 kbps • 16 bit \ 44100 Hz • stereo; 46.12 MB (48 358 831 B)]
    3. Donald Byrd - Chant.flac [08:53.627; FLAC • 941 kbps • 16 bit \ 44100 Hz • stereo; 59.90 MB (62 811 604 B)]
    4. Donald Byrd - That's All.flac [09:34.600; FLAC • 1006 kbps • 16 bit \ 44100 Hz • stereo; 68.94 MB (72 291 246 B)]
    5. Donald Byrd - Great God.flac [06:59.960; FLAC • 940 kbps • 16 bit \ 44100 Hz • stereo; 47.09 MB (49 380 118 B)]
    6. Donald Byrd - Sophisticated Lady.flac [04:33.600; FLAC • 883 kbps • 16 bit \ 44100 Hz • stereo; 28.81 MB (30 211 065 B)]

Accuracy: -m0

File 1. Donald Byrd - I'm An Old Cowhand - 100% CDDA [07:37:60]
File 2. Donald Byrd - You're Next        - 100% CDDA [07:22:54]
File 3. Donald Byrd - Chant              - 100% CDDA [08:53:47]
File 4. Donald Byrd - That's All         -  95% MPEG [09:34:45]
File 5. Donald Byrd - Great God          - 100% CDDA [06:59:72]
File 6. Donald Byrd - Sophisticated Lady - 100% CDDA [04:33:45]
————— Summary: —————
These tracks looks like CDDA with probability 100%.
————————————————————————————————————————————————————————————————————————

ANALYZER:
    auCDtect: CD records authenticity detector, version 0.8.2
    Copyright (c) 2004 Oleg Berngardt. All rights reserved.
    Copyright (c) 2004 Alexander Djourik. All rights reserved.

Time elapsed: 2 m 07 s
Log created at May 14, 2019 13:20:19

=== 81D1C341E1D789A3830E338BD40EAF98ECBEC4E3BFAD3C06C9461FD911E1BA89 ===
Приватный:
Нет (DHT включён)
Размер:
307.19 Мб (322,111,012 байт) » файлов: 11
Участники:
14 раздают, 0 качают (14 участников всего)
Внешние участники:
2 раздают, 0 качают (2 участников всего) [ Обновить ]
Никого нет на раздаче - пишите ЛС M0p94ok
No seeders - write PM to M0p94ok
13:50
22
Нет комментариев. Ваш будет первым!