Поиск

1979 Cheikh Tidiane Fall, Bobby Few, Jo Maka - Diom Futa (2018) {Kosmos} [24-44.1]

1979 Cheikh Tidiane Fall, Bobby Few, Jo Maka - Diom Futa (2018) {Kosmos} [24-44.1]
Треклист:

1. Sunflowers 08:34
2. Dream Drums 08:13
3. Diom Futa 11:48
4. Black Snow 05:17

Доп. инфо:

Формат записи/Источник записи: [TR24][OF]
Наличие водяных знаков: Нет
Издание: Reissue
Год издания/переиздания диска: 1979 / 2018
Жанр: World Fusion, Afro Jazz, Spiritual Jazz
Издатель (лейбл): Kosmos Records
Продолжительность: 00:33:55
Наличие сканов в содержимом раздачи: Нет

Контейнер: FLAC (*.flac)
Тип рипа: tracks
Разрядность: 24/44,1
Формат: PCM
Количество каналов: 2.0

Источник (релизер): komosrecords.bandcamp (lifeofdonald )

Лог проверки качества
foobar2000 1.4.6 / Замер динамического диапазона (DR) 1.1.1
Дата отчёта:  2019-09-20 08:00:57

--------------------------------------------------------------------------------
Анализ:   Cheikh Tidiane Fall, Bobby Few, Jo Maka / Diom Futa
--------------------------------------------------------------------------------

DR         Пики         RMS           Продолжительность трека
--------------------------------------------------------------------------------
DR9       -0.11 дБ   -11.03 дБ      8:35 01-Sunflowers
DR8       -0.11 дБ   -10.70 дБ      8:14 02-Dream Drums
DR9       -0.33 дБ   -14.47 дБ     11:48 03-Diom Futa
DR7       -0.96 дБ   -11.52 дБ      5:18 04-Black Snow
--------------------------------------------------------------------------------

Количество треков: 4
Реальные значения DR: DR8

Частота:   44100 Гц
Каналов:   2
Разрядность:   24
Битрейт:   1701 кбит/с
Кодек:   FLAC
================================================================================
Приватный:
Нет (DHT включён)
Размер:
390.73 Мб (409,708,114 байт) » файлов: 8
Участники:
0 раздают, 0 качают (0 участников всего)
Внешние участники:
1 раздают, 0 качают (1 участников всего) [ Обновить ]
Есть вопросы - пишите личное сообщение пользователю M0p94ok.
17:34
9
Нет комментариев. Ваш будет первым!