Поиск

1977 Lalo Schifrin - Towering Toccata (2013) {CTI, King} [DSD64]

1977 Lalo Schifrin - Towering Toccata (2013) {CTI, King} [DSD64]
Треклист:

1. Towering Toccata (Johann Sebastian Bach) 5:04
Based On The Toccata & Fugue In D Minor
2. Frances’ Theme 4:19
From The Motion Picture ‘Day Of The Animals’
3. Macumba 6:12
4. Eagles in Love 2:51
From The Columbia Film ‘The Eagle Has Landed’
5. Theme from King Kong (John Barry) 4:12
From The Paramount Film ‘King Kong’
6. Most Wanted Theme 2:44
7. Midnight Woman 6:07
8. Roller Coaster 4:45

Лог проверки качества
foobar2000 1.3.13 / Замер динамического диапазона (DR) 1.1.1
Дата отчёта:  2019-04-21 00:10:48

--------------------------------------------------------------------------------
Анализ:   ラロ・シフリン / タワーリング・トッカータ
--------------------------------------------------------------------------------

DR         Пики         RMS           Продолжительность трека
--------------------------------------------------------------------------------
DR12      -8.56 дБ   -24.46 дБ      2:52 ?-イーグルス・イン・ラヴ
DR13      -4.48 дБ   -19.79 дБ      2:45 ?-お尋ね者のテーマ
DR13      -6.59 дБ   -22.69 дБ      4:46 ?-ジェット・ローラー・コースターのテーマ
DR12      -4.85 дБ   -19.63 дБ      5:04 ?-タワーリング・トッカータ
DR12      -5.62 дБ   -19.65 дБ      4:19 ?-フランシスのテーマ
DR12      -4.48 дБ   -19.41 дБ      6:13 ?-マクンバ
DR13      -5.80 дБ   -21.00 дБ      4:13 ?-燃えよキング・コング
DR12      -4.24 дБ   -18.83 дБ      6:07 ?-真夜中の貴婦人
--------------------------------------------------------------------------------

Количество треков: 8
Реальные значения DR: DR12

Частота:   2822400 Гц / Частота PCM: 176400 Гц
Каналов:   2
Разрядность:   24
Битрейт:   5645 кбит/с
Кодек:   DSD64
================================================================================
Приватный:
Нет (DHT включён)
Размер:
1.43 Гб (1,538,879,798 байт) » файлов: 12
Участники:
0 раздают, 0 качают (0 участников всего)
Внешние участники:
14 раздают, 4 качают (18 участников всего) [ Обновить ]
10:36
24
Нет комментариев. Ваш будет первым!