Поиск

1976 Urbie Green - The Fox (2013) {CTI} [DSD64]

1976 Urbie Green - The Fox (2013) {CTI} [DSD64]
Треклист:

1 - Another Star 7:15
2 - Goodbye 2:57
3 - Mertensia 4:58
4 - You Don’t Know What Love Is 3:58
5 - Manteca 6:35
6 - Foxglove Suite 7:29
7 - Please Send Me Someone To Love 5:37

Лог проверки качества
foobar2000 1.3.13 / Замер динамического диапазона (DR) 1.1.1
Дата отчёта:  2019-04-21 06:51:19

--------------------------------------------------------------------------------
Анализ:   Urbie Green / The Fox
--------------------------------------------------------------------------------

DR         Пики         RMS           Продолжительность трека
--------------------------------------------------------------------------------
DR12      -6.16 дБ   -19.58 дБ      7:16 01-Another Star
DR12     -13.19 дБ   -28.38 дБ      2:58 02-Goodbye
DR13      -4.94 дБ   -19.72 дБ      4:57 03-Mertensia
DR10      -9.54 дБ   -24.25 дБ      3:59 04-You Don't Know What Love Is
DR14      -5.72 дБ   -21.31 дБ      6:35 05-Manteca
DR14      -4.60 дБ   -21.06 дБ      7:27 06-Foxglove Suite
DR14      -5.52 дБ   -21.41 дБ      5:33 07-Please Send Me Someone to Love
--------------------------------------------------------------------------------

Количество треков: 7
Реальные значения DR: DR13

Частота:   2822400 Гц / Частота PCM: 176400 Гц
Каналов:   2
Разрядность:   24
Битрейт:   5645 кбит/с
Кодек:   DSD64
================================================================================
Приватный:
Нет (DHT включён)
Размер:
1.53 Гб (1,646,434,807 байт) » файлов: 11
Участники:
3 раздают, 0 качают (3 участников всего)
Внешние участники:
10 раздают, 3 качают (13 участников всего) [ Обновить ]
Никого нет на раздаче - пишите ЛС M0p94ok
No seeders - write PM to M0p94ok
10:09
13
Нет комментариев. Ваш будет первым!