Поиск

1976 The Apostles - The Apostles (2016) {Presch PMG032} [WEB]

1976 The Apostles - The Apostles (2016) {Presch PMG032} [WEB]
Треклист:

1. Never Too Late
2. Play Girl
3. Inflation
4. Trust In God
5. Highway To Success
6. Mr Guest Of Honour
7. Don't Worry
8. Good Encouragement

Состав:
  • Bass Guitar – Henry Tandu
  • Drums – Joel Madubuike
  • Lead Guitar – Walton Arungwa
  • Lead Vocals – Chyke Fussion Okoro
  • Organ – Benjamin Davidson
  • Rhythm Guitar – Harrison Mba
  • Vocals – Murphy Williams

Жанр: Afro Funk, Afrobeat, Psychedelic Soul
Носитель: WEB
Год издания: 2016
Издатель (лейбл): Presch Media Group
Номер по каталогу: PMG032
Страна исполнителя (группы): Nigeria
Аудиокодек: FLAC (*.flac)
Тип рипа: tracks
Продолжительность: 00:35:02
Источник: mantis
Наличие сканов в содержимом раздачи: нет

Доп. инфо:
DR
foobar2000 1.3.16 / Замер динамического диапазона (DR) 1.1.1
Дата отчёта: 2019-04-14 09:18:19
--------------------------------------------------------------------------------
Анализ: The Apostles / The Apostles
--------------------------------------------------------------------------------
DR Пики RMS Продолжительность трека
--------------------------------------------------------------------------------
DR9 -0.40 дБ -10.83 дБ 6:08 01-Never Too Late
DR9 -0.40 дБ -10.83 дБ 5:35 02-Play Girl
DR9 -0.32 дБ -11.15 дБ 3:51 03-Inflation
DR8 -0.30 дБ -9.77 дБ 3:08 04-Trust In God
DR9 -0.40 дБ -11.23 дБ 4:57 05-Highway To Success
DR8 -0.35 дБ -9.65 дБ 3:55 06-Mr Guest Of Honour
DR8 -0.40 дБ -9.83 дБ 4:13 07-Don't Worry
DR8 -0.40 дБ -10.19 дБ 3:16 08-Good Encouragement
--------------------------------------------------------------------------------
Количество треков: 8
Реальные значения DR: DR8
Частота: 44100 Гц
Каналов: 2
Разрядность: 16
Битрейт: 899 кбит/с
Кодек: FLAC
================================================================================
Лог проверки качества
-----------------------
DON'T MODIFY THIS FILE
-----------------------
PERFORMER: auCDtect Task Manager, ver. 1.6.0 RC1 build 1.6.0.1
Copyright (c) 2008-2010 y-soft. All rights reserved
http://y-soft.org
ANALYZER: auCDtect: CD records authenticity detector, version 0.8.2
Copyright (c) 2004 Oleg Berngardt. All rights reserved.
Copyright (c) 2004 Alexander Djourik. All rights reserved.
FILE: 08 Good Encouragement.flac
Size: 22125407 Hash: 4D1512B2A99B1DF0E949A883D80D3D85 Accuracy: -m0
Conclusion: CDDA 100%
Signature: 143C1932D41ABC3B6BDE908ABDA465BB793FC922
FILE: 07 Don't Worry.flac
Size: 28617922 Hash: EFF63F3D6ACAE94842D244ADEFC23CD5 Accuracy: -m0
Conclusion: CDDA 100%
Signature: 0AE4B1F2FE2EB92DD01112333EC591E00E0EB248
FILE: 06 Mr Guest Of Honour.flac
Size: 27716025 Hash: 2B53E6C60A4C049D52C45B9B4DEEAABB Accuracy: -m0
Conclusion: CDDA 100%
Signature: EACE2EEABE2D93367E6F9205F10FC7111DA7C9F9
FILE: 05 Highway To Success.flac
Size: 34151602 Hash: 107BB16171D9B7E3DB45A5A29EB6A0BF Accuracy: -m0
Conclusion: CDDA 100%
Signature: EE4619A9AAFA127D44F3659038F9F81A008A8AAF
FILE: 04 Trust In God.flac
Size: 21981336 Hash: 5A802F27E30B0905E6B345CAB5314576 Accuracy: -m0
Conclusion: CDDA 100%
Signature: 8A5F56185F8B6C5DFAF5E9D384ACE39D45D49AAB
FILE: 03 Inflation.flac
Size: 25268895 Hash: 36A6123D901D5981D06235B9E3BBB89E Accuracy: -m0
Conclusion: CDDA 100%
Signature: BF3AFEBBB9A434D285C71C63E2602171BABF457A
FILE: 02 Play Girl.flac
Size: 36382896 Hash: B8CE74843B16EC6780AD24F639947B25 Accuracy: -m0
Conclusion: CDDA 100%
Signature: 3A82CB24D57ECC433C9E7A98F07EE15D0C99B32E
FILE: 01 Never Too Late.flac
Size: 41115629 Hash: A66559C8A276C32CD698F55B37A28548 Accuracy: -m0
Conclusion: CDDA 100%
Signature: 0D6B9730B39C89F2C7BE10EBAAF2055F5D6A1AAE
Об альбоме (сборнике)
The Apostles were disciples of a heavy kind of psychedelic soul/rock fusion. After The Funkees left for London, they stepped into the breach to become the champions of East Nigeria's flourishing post-war music scene. This album from 1976, containing a heavy mix of wailing guitar, swirling organ and James Brown-style vocals, became a fixture in every East Nigerian home.
Download available for power users only.
02:03
428
Нет комментариев. Ваш будет первым!