Поиск

1976 Earl Klugh - Living Inside Your Love (1996) {EMI-Manhattan} [CD]

1976 Earl Klugh - Living Inside Your Love (1996) {EMI-Manhattan} [CD]
Битрейт аудио:
lossless
Треклист:
1. Captain Caribe (Dave Grusin) - 5:20
2. I Heard It Through The Grapevine (Barrett Strong, Norman Whitfield) - 7:28
3. Felicia (Earl Klugh) - 5:25
4. Living Inside Your Love (Dave Grusin, Earl Klugh) - 5:40
5. Another Time, Another Place (Dave Grusin) - 6:41
6. The April Fools (Hal David - Burt Bacharach) - 3:43
7. Kiko (Earl Klugh) - 2:46
 
Логи
 
Лог создания рипа
Exact Audio Copy V1.3 from 2. September 2016
EAC extraction logfile from 4. November 2018, 16:38
Earl Klugh / Living Inside Your Love
Used drive  : HL-DT-STDVDRAM GH24NSB0   Adapter: 1  ID: 0
Read mode               : Secure
Utilize accurate stream : Yes
Defeat audio cache      : Yes
Make use of C2 pointers : No
Read offset correction                      : 6
Overread into Lead-In and Lead-Out          : No
Fill up missing offset samples with silence : Yes
Delete leading and trailing silent blocks   : No
Null samples used in CRC calculations       : Yes
Used interface                              : Native Win32 interface for Win NT & 2000
Gap handling                                : Appended to previous track
Used output format              : User Defined Encoder
Selected bitrate                : 1024 kBit/s
Quality                         : High
Add ID3 tag                     : No
Command line compressor         : C:\Program Files (x86)\Exact Audio Copy\FLAC\FLAC.EXE
Additional command line options : -V -8 -T "Genre=%genre%" -T "Artist=%artist%" -T "Title=%title%" -T "Album=%albumtitle%" -T "Date=%year%" -T "Tracknumber=%tracknr%" -T "Comment=%comment%" %source%
TOC of the extracted CD
     Track |   Start  |  Length  | Start sector | End sector
    ---------------------------------------------------------
        1  |  0:00.00 |  5:23.20 |         0    |    24244
        2  |  5:23.20 |  7:28.05 |     24245    |    57849
        3  | 12:51.25 |  5:23.05 |     57850    |    82079
        4  | 18:14.30 |  5:41.00 |     82080    |   107654
        5  | 23:55.30 |  6:41.57 |    107655    |   137786
        6  | 30:37.12 |  3:45.33 |    137787    |   154694
        7  | 34:22.45 |  2:46.67 |    154695    |   167211
Track  1
     Filename D:\Music\MG rips\Earl Klugh - Living Inside Your Love - 1976 (1996 EMI-Manhattan Records CDP 7 48385 2) [FLAC]\01 - Captain Caribe.wav
     Pre-gap length  0:00:02.00
     Peak level 96.4 %
     Extraction speed 1.2 X
     Track quality 100.0 %
     Test CRC D9A97A9D
     Copy CRC D9A97A9D
     Accurately ripped (confidence 22)  [2AD5197C]  (AR v2)
     Copy OK
Track  2
     Filename D:\Music\MG rips\Earl Klugh - Living Inside Your Love - 1976 (1996 EMI-Manhattan Records CDP 7 48385 2) [FLAC]\02 - I Heard it Through the Grapevine.wav
     Pre-gap length  0:00:01.53
     Peak level 95.3 %
     Extraction speed 1.4 X
     Track quality 100.0 %
     Test CRC 00500958
     Copy CRC 00500958
     Accurately ripped (confidence 22)  [D0E9390E]  (AR v2)
     Copy OK
Track  3
     Filename D:\Music\MG rips\Earl Klugh - Living Inside Your Love - 1976 (1996 EMI-Manhattan Records CDP 7 48385 2) [FLAC]\03 - Felicia.wav
     Pre-gap length  0:00:01.23
     Peak level 94.2 %
     Extraction speed 1.5 X
     Track quality 100.0 %
     Test CRC 799BFE07
     Copy CRC 799BFE07
     Accurately ripped (confidence 22)  [4A4FA639]  (AR v2)
     Copy OK
Track  4
     Filename D:\Music\MG rips\Earl Klugh - Living Inside Your Love - 1976 (1996 EMI-Manhattan Records CDP 7 48385 2) [FLAC]\04 - Living Inside Your Love.wav
     Pre-gap length  0:00:01.33
     Peak level 99.9 %
     Extraction speed 1.7 X
     Track quality 100.0 %
     Test CRC C7935587
     Copy CRC C7935587
     Accurately ripped (confidence 22)  [0BADB79F]  (AR v2)
     Copy OK
Track  5
     Filename D:\Music\MG rips\Earl Klugh - Living Inside Your Love - 1976 (1996 EMI-Manhattan Records CDP 7 48385 2) [FLAC]\05 - Another Time, Another Place.wav
     Pre-gap length  0:00:00.68
     Peak level 89.9 %
     Extraction speed 1.8 X
     Track quality 100.0 %
     Test CRC 577654CF
     Copy CRC 577654CF
     Accurately ripped (confidence 22)  [83AC72B4]  (AR v2)
     Copy OK
Track  6
     Filename D:\Music\MG rips\Earl Klugh - Living Inside Your Love - 1976 (1996 EMI-Manhattan Records CDP 7 48385 2) [FLAC]\06 - The April Fools.wav
     Pre-gap length  0:00:01.57
     Peak level 68.1 %
     Extraction speed 1.6 X
     Track quality 99.9 %
     Test CRC 7AFA9D1C
     Copy CRC 7AFA9D1C
     Accurately ripped (confidence 22)  [21669917]  (AR v2)
     Copy OK
Track  7
     Filename D:\Music\MG rips\Earl Klugh - Living Inside Your Love - 1976 (1996 EMI-Manhattan Records CDP 7 48385 2) [FLAC]\07 - Kiko.wav
     Pre-gap length  0:00:01.13
     Peak level 74.5 %
     Extraction speed 1.8 X
     Track quality 100.0 %
     Test CRC DA632594
     Copy CRC DA632594
     Accurately ripped (confidence 21)  [64F9400D]  (AR v2)
     Copy OK
All tracks accurately ripped
No errors occurred
End of status report
==== Log checksum 6E1E6D219EB926D1F82D81FBC07765ADF4BD1F742168C54A8FAFBCF69444D34F ====
 
Содержание индексной карты (.CUE):
REM GENRE Jazz
REM DATE 1996
REM DISCID 5D08B507
REM COMMENT "ExactAudioCopy v1.3"
PERFORMER "Earl Klugh"
TITLE "Living Inside Your Love"
REM COMPOSER ""
FILE "01 - Captain Caribe.wav" WAVE
  TRACK 01 AUDIO
    TITLE "Captain Caribe"
    PERFORMER "Earl Klugh"
    REM COMPOSER ""
    INDEX 01 00:00:00
  TRACK 02 AUDIO
    TITLE "I Heard it Through the Grapevine"
    PERFORMER "Earl Klugh"
    REM COMPOSER ""
    INDEX 00 05:21:42
FILE "02 - I Heard it Through the Grapevine.wav" WAVE
    INDEX 01 00:00:00
  TRACK 03 AUDIO
    TITLE "Felicia"
    PERFORMER "Earl Klugh"
    REM COMPOSER ""
    INDEX 00 07:26:57
FILE "03 - Felicia.wav" WAVE
    INDEX 01 00:00:00
  TRACK 04 AUDIO
    TITLE "Living Inside Your Love"
    PERFORMER "Earl Klugh"
    REM COMPOSER ""
    INDEX 00 05:21:47
FILE "04 - Living Inside Your Love.wav" WAVE
    INDEX 01 00:00:00
  TRACK 05 AUDIO
    TITLE "Another Time, Another Place"
    PERFORMER "Earl Klugh"
    REM COMPOSER ""
    INDEX 00 05:40:07
FILE "05 - Another Time, Another Place.wav" WAVE
    INDEX 01 00:00:00
  TRACK 06 AUDIO
    TITLE "The April Fools"
    PERFORMER "Earl Klugh"
    REM COMPOSER ""
    INDEX 00 06:40:00
FILE "06 - The April Fools.wav" WAVE
    INDEX 01 00:00:00
  TRACK 07 AUDIO
    TITLE "Kiko"
    PERFORMER "Earl Klugh"
    REM COMPOSER ""
    INDEX 00 03:44:20
FILE "07 - Kiko.wav" WAVE
    INDEX 01 00:00:00
 
Лог проверки качества

 

 
Лог CUETools
[CUETools log; Date: 11/11/2018 7:48:08 AM; Version: 2.1.5]
[CTDB TOCID: u3f.aRzGhfLDldD2xiSPPG7mm88-] found.
Track | CTDB Status
  1   | (23/24) Accurately ripped
  2   | (24/24) Accurately ripped
  3   | (24/24) Accurately ripped
  4   | (24/24) Accurately ripped
  5   | (23/24) Accurately ripped
  6   | (24/24) Accurately ripped
  7   | (24/24) Accurately ripped
[AccurateRip ID: 000b2984-0042292f-5d08b507] found.
Track   [  CRC   |   V2   ] Status
 01     [03d0610d|2ad5197c] (07+22/33) Accurately ripped
 02     [c7f8f318|d0e9390e] (07+22/34) Accurately ripped
 03     [7434519d|4a4fa639] (07+22/34) Accurately ripped
 04     [1afcc9ac|0badb79f] (08+22/35) Accurately ripped
 05     [e10db7f5|83ac72b4] (07+22/33) Accurately ripped
 06     [cd8627ce|21669917] (07+22/34) Accurately ripped
 07     [219fd1d0|64f9400d] (06+21/32) Accurately ripped
Offsetted by 29:
 01     [025a150e] (02/33) Accurately ripped
 02     [1e05b66e] (02/34) Accurately ripped
 03     [e02680da] (02/34) Accurately ripped
 04     [ff63e56a] (02/35) Accurately ripped
 05     [a1c89b97] (02/33) Accurately ripped
 06     [2a7c10e7] (02/34) Accurately ripped
 07     [dfe749dd] (02/32) Accurately ripped
Track Peak [ CRC32  ] [W/O NULL] [  LOG   ]
 --   99.9 [24EF8D0E] [BF5E4780]
 01   96.4 [D9A97A9D] [4C3FA02A]   CRC32
 02   95.3 [00500958] [CEB98B0C]   CRC32
 03   94.2 [799BFE07] [39C71E75]   CRC32
 04   99.9 [C7935587] [2687EB2B]   CRC32
 05   89.9 [577654CF] [940B5117]   CRC32
 06   68.1 [7AFA9D1C] [73D63120]   CRC32
 07   74.5 [DA632594] [4CE8AB28]   CRC32
 
Замер динамического диапазона
foobar2000 1.3.10 / Замер динамического диапазона (DR) 1.1.1
Дата отчёта:  2018-11-27 16:04:08
--------------------------------------------------------------------------------
Анализ:   Earl Klugh / Living Inside Your Love
--------------------------------------------------------------------------------
DR         Пики         RMS           Продолжительность трека
--------------------------------------------------------------------------------
DR15      -0.32 дБ   -16.67 дБ      5:23 01-Captain Caribe
DR16      -0.42 дБ   -18.79 дБ      7:28 02-I Heard it Through the Grapevine
DR14      -0.51 дБ   -16.55 дБ      5:23 03-Felicia
DR13      -0.01 дБ   -16.80 дБ      5:41 04-Living Inside Your Love
DR13      -0.92 дБ   -17.80 дБ      6:42 05-Another Time, Another Place
DR13      -3.33 дБ   -21.75 дБ      3:45 06-The April Fools
DR12      -2.55 дБ   -17.77 дБ      2:47 07-Kiko
--------------------------------------------------------------------------------
Количество треков: 7
Реальные значения DR: DR14
Частота:   44100 Гц
Каналов:   2
Разрядность:   16
Битрейт:   723 кбит/с
Кодек:   FLAC
================================================================================
Приватный:
Нет (DHT включён)
Размер:
229.23 Мб (240,367,429 байт) » файлов: 15
Участники:
0 раздают, 1 качают (1 участников всего)
Внешние участники:
8 раздают, 2 качают (10 участников всего) [ Обновить ]
For power users only: no seeders - write to support@pro-jazz.com. Для power user: нет сидеров - пишите на support@pro-jazz.com.
11:14
154
Нет комментариев. Ваш будет первым!