Поиск

1976 Air - Air Raid (2010) {Why Not, Candid WNCD 79413} [CD]

1976 Air - Air Raid (2010) {Why Not, Candid WNCD 79413} [CD]
Дата записи диска:
15 июля 1976
Место записи:
Basement Studio, New York City, NY, USA
Дата переиздания диска:
22 июня 2010
Издатель (лейбл):
Номер по каталогу:
WNCD 79413
Носитель:
CD
Тип рипа:
image
Аудиокодек:
APE (*.ape)
Битрейт аудио:
lossless
Время звучания:
00:43:08
Наличие сканов:
буклет pdf
Страна-производитель диска (релиза):
USA
Релизёр (источник):
barin99 (nnm)
Доп. инфо:

Этот долгожданный альбом Air Raid был записан почти через год после первой сессии Air Song на японском лейбле Why Not Masahiko Yuh, 15 июля 1976 года. В этой сессии Генри Тредгилл снова выступает в качестве основного ведущего инструмента. Threadgill переключается между китайским мюзетом, а также саксофоном, флейтой и хубкафоном (ударный инструмент, который он собрал с использованием колпаков), а также участвует во всех четырех оригинальных композициях. Группа, которая была тесно связана со знаменитым предприятием AACM, демонстрирует тесное взаимодействие между Тредгилл, Фред Хопкинс (Fred Hopkins) на басу и Стив МакКолл (Steve McCall) на ударных.

Лог создания рипа
Exact Audio Copy V0.99 prebeta 5 from 4. May 2009
EAC extraction logfile from 24. August 2010, 17:23
Air / Air Raid
Used drive  : TSSTcorpDVD+-RW TS-U633A   Adapter: 0  ID: 1
Read mode               : Secure
Utilize accurate stream : Yes
Defeat audio cache      : Yes
Make use of C2 pointers : No
Read offset correction                      : 6
Overread into Lead-In and Lead-Out          : No
Fill up missing offset samples with silence : Yes
Delete leading and trailing silent blocks   : No
Null samples used in CRC calculations       : Yes
Used interface                              : Native Win32 interface for Win NT & 2000
Used output format : Internal WAV Routines
Sample format      : 44.100 Hz; 16 Bit; Stereo
TOC of the extracted CD
     Track |   Start  |  Length  | Start sector | End sector
    ---------------------------------------------------------
        1  |  0:00.00 | 12:02.15 |         0    |    54164
        2  | 12:02.15 |  7:10.40 |     54165    |    86454
        3  | 19:12.55 | 16:34.22 |     86455    |   161026
        4  | 35:47.02 |  7:21.20 |    161027    |   194121
Range status and errors
Selected range
     Filename C:\_Arc\EAC_Out\Air - Air Raid\Air - Air Raid.wav
     Peak level 100.0 %
     Range quality 99.9 %
     Copy CRC 9DF553F4
     Copy OK
No errors occurred
AccurateRip summary
Track  1  not present in database
Track  2  not present in database
Track  3  not present in database
Track  4  not present in database
None of the tracks are present in the AccurateRip database
End of status report
No seeders - write personal message to M0p94ok. Any questions - support@pro-jazz.com.
Нет сидеров - пишите в личку M0p94ok. Есть вопросы - support@pro-jazz.com
03:24
164
Нет комментариев. Ваш будет первым!