Поиск

1976-1994 The Brecker Brothers - Collection (1994-2017) [5CD]

1976-1994 The Brecker Brothers - Collection (1994-2017) [5CD]
Битрейт аудио:
lossless
Треклист:

Жанр: Jazz-Rock, Jazz-Funk, Fusion
Носитель: CD
Страна-производитель диска (релиза): Japan, USA
Год издания: 1994 / 2016 / 2017
Издатель (лейбл): Arista
Номер по каталогу: SICJ-173/ SICJ-174/ SICJ-282/ SICJ 283/ GRD-9784
Страна исполнителя (группы): USA
Аудиокодек: FLAC (*.flac)
Тип рипа: tracks+.cue
Продолжительность: ~03:17:34
Источник (релизер): index123458
Наличие сканов в содержимом раздачи: да

 
1976 (2016) - Back To Back - 48:44
 
1977 - Don't Stop The Music (2016) - 41:37
 
1978 - Heavy Metal Be-Bop (2017) - 42:35
 
1980 - Detente (2017) - 43:28
 
1994 - Out Of The Loop - 54:51

Страна-производитель диска: usa
Год выпуска диска: 1994
Дата выхода оригинального издания: 1994
Тип издания: CD, Album,
Издатель (лейбл): GRP
Номер по каталогу: GRD-9784

Треклист
01 Slang (06:11)
02 Evocations (05:18)
03 Scrunch (04:31)
04 Secret Heart (05:04)
05 African Skies (07:49)
06 When It Was (04:31)
07 Harpoon (07:44)
08 The Nightwalker (08:45)
09 And Then She Wept (04:53)

 
Лог создания рипа
Exact Audio Copy V1.0 beta 2 from 29. April 2011
Отчёт EAC об извлечении, выполненном 29. января 2019, 13:55
Brecker Brothers / Out Of The Loop
Дисковод: ASUS    DRW-24D5MT   Adapter: 0  ID: 1
Режим чтения                 : Достоверность
Использование точного потока : Да
Отключение кэша аудио        : Да
Использование указателей C2  : Нет
Коррекция смещения при чтении                     : 6
Способность читать области Lead-in и Lead-out     : Нет
Заполнение пропущенных сэмплов тишиной            : Да
Удаление блоков с тишиной в начале и конце        : Нет
При вычислениях CRC использовались нулевые сэмплы : Да
Интерфейс                                         : Встроенный Win32-интерфейс для Win NT/2000
Обработка зазоров                                 : Добавлено к предыдущему треку
Выходной формат          : Пользовательский кодировщик
Выбранный битрейт        : 128 kBit/s
Качество                 : Высокий
Добавление ID3-тега      : Нет
Утилита сжатия           : C:\Program Files\Exact Audio Copy\FLAC\FLAC.EXE
Дополнительные параметры : -8 -V -T "ARTIST=%artist%" -T "TITLE=%title%" -T "ALBUM=%albumtitle%" -T "DATE=%year%" -T "TRACKNUMBER=%tracknr%" -T "GENRE=%genre%" -T "COMMENT=%comment%" -T "BAND=%albuminterpret%" -T "COMPOSER=%composer%" %haslyrics%--tag-from-
TOC извлечённого CD
     Трек |   Старт  | Длительность | Начальный сектор | Конечный сектор
    ---------------------------------------------------------------------
       1  |  0:00.00 |    6:11.43   |           0      |      27867
       2  |  6:11.43 |    5:18.30   |       27868      |      51747
       3  | 11:29.73 |    4:31.50   |       51748      |      72122
       4  | 16:01.48 |    5:04.60   |       72123      |      94982
       5  | 21:06.33 |    7:49.52   |       94983      |     130209
       6  | 28:56.10 |    4:31.38   |      130210      |     150572
       7  | 33:27.48 |    7:44.45   |      150573      |     185417
       8  | 41:12.18 |    8:45.25   |      185418      |     224817
       9  | 49:57.43 |    4:53.57   |      224818      |     246849
Трек  1
     Имя файла D:\FLAC\01 Slang.wav
     Длина предзазора  0:00:02.00
     Пиковый уровень 96.7 %
     Скорость извлечения 4.5 X
     Качество трека 100.0 %
     CRC теста DAE5180F
     CRC копии DAE5180F
     Точное извлечение (достоверность 1)  [2318F123]  (AR v2)
     Копирование... OK
Трек  2
     Имя файла D:\FLAC\02 Evocations.wav
     Длина предзазора  0:00:00.43
     Пиковый уровень 100.0 %
     Скорость извлечения 4.7 X
     Качество трека 99.9 %
     CRC теста 865D4D7D
     CRC копии 865D4D7D
     Точное извлечение (достоверность 1)  [15D82659]  (AR v2)
     Копирование... OK
Трек  3
     Имя файла D:\FLAC\03 Scrunch.wav
     Длина предзазора  0:00:01.60
     Пиковый уровень 100.0 %
     Скорость извлечения 5.5 X
     Качество трека 100.0 %
     CRC теста 2093B292
     CRC копии 2093B292
     Точное извлечение (достоверность 1)  [66AC4D43]  (AR v2)
     Копирование... OK
Трек  4
     Имя файла D:\FLAC\04 Secret Heart.wav
     Длина предзазора  0:00:02.48
     Пиковый уровень 100.0 %
     Скорость извлечения 5.5 X
     Качество трека 99.9 %
     CRC теста B6E27100
     CRC копии B6E27100
     Точное извлечение (достоверность 1)  [37845958]  (AR v2)
     Копирование... OK
Трек  5
     Имя файла D:\FLAC\05 African Skies.wav
     Длина предзазора  0:00:00.70
     Пиковый уровень 100.0 %
     Скорость извлечения 6.7 X
     Качество трека 100.0 %
     CRC теста 92A96308
     CRC копии 92A96308
     Точное извлечение (достоверность 1)  [B8D8EE01]  (AR v2)
     Копирование... OK
Трек  6
     Имя файла D:\FLAC\06 When It Was.wav
     Длина предзазора  0:00:02.47
     Пиковый уровень 100.0 %
     Скорость извлечения 6.9 X
     Качество трека 100.0 %
     CRC теста 102D45C8
     CRC копии 102D45C8
     Точное извлечение (достоверность 1)  [DCFEF2C1]  (AR v2)
     Копирование... OK
Трек  7
     Имя файла D:\FLAC\07 Harpoon.wav
     Длина предзазора  0:00:01.53
     Пиковый уровень 100.0 %
     Скорость извлечения 7.6 X
     Качество трека 100.0 %
     CRC теста 3ACFDD77
     CRC копии 3ACFDD77
     Точное извлечение (достоверность 1)  [E5F42AF8]  (AR v2)
     Копирование... OK
Трек  8
     Имя файла D:\FLAC\08 The Nightwalker.wav
     Длина предзазора  0:00:00.55
     Пиковый уровень 99.9 %
     Скорость извлечения 8.2 X
     Качество трека 100.0 %
     CRC теста 0FF69E65
     CRC копии 0FF69E65
     Точное извлечение (достоверность 1)  [AA220288]  (AR v2)
     Копирование... OK
Трек  9
     Имя файла D:\FLAC\09 And Then She Wept.wav
     Пиковый уровень 65.3 %
     Скорость извлечения 8.1 X
     Качество трека 100.0 %
     CRC теста ECA4D535
     CRC копии ECA4D535
     Точное извлечение (достоверность 1)  [162B46E2]  (AR v2)
     Копирование... OK
Все треки извлечены точно
Ошибок не произошло
Конец отчёта
#ИМЯ?
[CTDB TOCID: ShsoLgDg4IUu7SlajY5c2zrMyPM-] found
Submit result: already submitted
Track | CTDB Status
  1   | (4/4) Accurately ripped
  2   | (4/4) Accurately ripped
  3   | (4/4) Accurately ripped
  4   | (4/4) Accurately ripped
  5   | (4/4) Accurately ripped
  6   | (4/4) Accurately ripped
  7   | (4/4) Accurately ripped
  8   | (4/4) Accurately ripped
  9   | (4/4) Accurately ripped
==== Контрольная сумма отчёта 8091E7F73E26451537F4F870AAD4C2B24AA5954874ADC5A028B6744587E3573C ====
 
Содержание индексной карты (.CUE)
REM GENRE Jazz
REM DATE 1994
REM DISCID 8E0CDB09
REM COMMENT "ExactAudioCopy v1.0b2"
PERFORMER "Brecker Brothers"
TITLE "Out Of The Loop"
FILE "01 Slang.wav" WAVE
  TRACK 01 AUDIO
    TITLE "Slang"
    PERFORMER "Brecker Brothers"
    INDEX 01 00:00:00
  TRACK 02 AUDIO
    TITLE "Evocations"
    PERFORMER "Brecker Brothers"
    INDEX 00 06:11:00
FILE "02 Evocations.wav" WAVE
    INDEX 01 00:00:00
  TRACK 03 AUDIO
    TITLE "Scrunch"
    PERFORMER "Brecker Brothers"
    INDEX 00 05:16:45
FILE "03 Scrunch.wav" WAVE
    INDEX 01 00:00:00
  TRACK 04 AUDIO
    TITLE "Secret Heart"
    PERFORMER "Brecker Brothers"
    INDEX 00 04:29:02
FILE "04 Secret Heart.wav" WAVE
    INDEX 01 00:00:00
  TRACK 05 AUDIO
    TITLE "African Skies"
    PERFORMER "Brecker Brothers"
    INDEX 00 05:03:65
FILE "05 African Skies.wav" WAVE
    INDEX 01 00:00:00
  TRACK 06 AUDIO
    TITLE "When It Was"
    PERFORMER "Brecker Brothers"
    INDEX 00 07:47:05
FILE "06 When It Was.wav" WAVE
    INDEX 01 00:00:00
  TRACK 07 AUDIO
    TITLE "Harpoon"
    PERFORMER "Brecker Brothers"
    INDEX 00 04:29:60
FILE "07 Harpoon.wav" WAVE
    INDEX 01 00:00:00
  TRACK 08 AUDIO
    TITLE "The Nightwalker"
    PERFORMER "Brecker Brothers"
    INDEX 00 07:43:65
FILE "08 The Nightwalker.wav" WAVE
    INDEX 01 00:00:00
FILE "09 And Then She Wept.wav" WAVE
  TRACK 09 AUDIO
    TITLE "And Then She Wept"
    PERFORMER "Brecker Brothers"
    INDEX 01 00:00:00
11:04
941
Нет комментариев. Ваш будет первым!