Вы используете незарегистрированную версию компонента "Вкладки"!

Поиск

1976-1986 Saint-Preux - Collection [3CD]

1976-1986 Saint-Preux - Collection [3CD]
Треклист:
 
1976 - Samara (Polydor 823 252-2) 00:37:44

01. Priere A Samara, La Musicienne "Give Me Some Music"
02. L'Ile De L'Albatros
03. Fantasmes
04. L'Archipel Du Souvenir
05. Nostalgie
06. Supplique De Samara "Save Me"
07. Je Reviendrai (D'Apres Un Poeme De Charles Baudelaire)
08. Paradis Artificiels
09. Le Souvenir De Samara
10. La Chanson De Samara "I Belong To The Sun"
11. A La Recherche De Samara

 
Лог создания рипа
Exact Audio Copy V1.3 from 2. September 2016
EAC extraction logfile from 18. November 2018, 13:48
 Saint-Preux / Samara
Used drive  : TSSTcorpCDDVDW SH-224DB   Adapter: 1  ID: 0
Read mode               : Secure
Utilize accurate stream : Yes
Defeat audio cache      : Yes
Make use of C2 pointers : No
Read offset correction                      : 6
Overread into Lead-In and Lead-Out          : No
Fill up missing offset samples with silence : Yes
Delete leading and trailing silent blocks   : No
Null samples used in CRC calculations       : Yes
Used interface                              : Native Win32 interface for Win NT & 2000
Gap handling                                : Appended to previous track
Used output format              : User Defined Encoder
Selected bitrate                : 1024 kBit/s
Quality                         : High
Add ID3 tag                     : No
Command line compressor         : C:\Program Files (x86)\Exact Audio Copy\win64\flac.exe
Additional command line options : -8 -V -T "ARTIST=%artist%" -T "TITLE=%title%" -T "ALBUM=%albumtitle%" -T "DATE=%year%" -T "TRACKNUMBER=%tracknr%" -T "GENRE=%genre%" -T "COMMENT=%comment%" %source% -o %dest%
TOC of the extracted CD
     Track |   Start  |  Length  | Start sector | End sector
    ---------------------------------------------------------
        1  |  0:00.00 |  3:10.18 |         0    |    14267
        2  |  3:10.18 |  2:54.62 |     14268    |    27379
        3  |  6:05.05 |  3:36.30 |     27380    |    43609
        4  |  9:41.35 |  2:53.40 |     43610    |    56624
        5  | 12:35.00 |  2:29.46 |     56625    |    67845
        6  | 15:04.46 |  5:08.13 |     67846    |    90958
        7  | 20:12.59 |  3:35.16 |     90959    |   107099
        8  | 23:48.00 |  4:12.16 |    107100    |   126015
        9  | 28:00.16 |  2:22.03 |    126016    |   136668
       10  | 30:22.19 |  2:34.56 |    136669    |   148274
       11  | 32:57.00 |  4:47.29 |    148275    |   169828
Track  1
     Filename F:\Sket4er\Saint-Preux – Samara (1976)  1984\01 Priere À Samara, La Musicienne.wav
     Pre-gap length  0:00:02.00
     Peak level 98.4 %
     Extraction speed 1.6 X
     Track quality 99.9 %
     Test CRC 0CECC482
     Copy CRC 0CECC482
     Accurately ripped (confidence 1)  [A18A92A0]  (AR v2)
     Copy OK
Track  2
     Filename F:\Sket4er\Saint-Preux – Samara (1976)  1984\02 L'ile De L'Albatros.wav
     Peak level 81.9 %
     Extraction speed 2.0 X
     Track quality 100.0 %
     Test CRC 8B0C5B7F
     Copy CRC 8B0C5B7F
     Accurately ripped (confidence 1)  [01E0AB9F]  (AR v2)
     Copy OK
Track  3
     Filename F:\Sket4er\Saint-Preux – Samara (1976)  1984\03 Fantasmes.wav
     Peak level 91.7 %
     Extraction speed 2.2 X
     Track quality 100.0 %
     Test CRC AA950F8F
     Copy CRC AA950F8F
     Accurately ripped (confidence 1)  [BE62833B]  (AR v2)
     Copy OK
Track  4
     Filename F:\Sket4er\Saint-Preux – Samara (1976)  1984\04 L'Archipel Du Souvenir.wav
     Peak level 43.5 %
     Extraction speed 2.2 X
     Track quality 100.0 %
     Test CRC 62B59EE4
     Copy CRC 62B59EE4
     Accurately ripped (confidence 1)  [1507D556]  (AR v2)
     Copy OK
Track  5
     Filename F:\Sket4er\Saint-Preux – Samara (1976)  1984\05 Nostalgie.wav
     Peak level 81.1 %
     Extraction speed 2.2 X
     Track quality 100.0 %
     Test CRC 9CAAB0ED
     Copy CRC 9CAAB0ED
     Accurately ripped (confidence 1)  [8166C87A]  (AR v2)
     Copy OK
Track  6
     Filename F:\Sket4er\Saint-Preux – Samara (1976)  1984\06 Supplique À Samara.wav
     Peak level 84.7 %
     Extraction speed 2.6 X
     Track quality 100.0 %
     Test CRC C0DC0902
     Copy CRC C0DC0902
     Accurately ripped (confidence 1)  [DB9AC27F]  (AR v2)
     Copy OK
Track  7
     Filename F:\Sket4er\Saint-Preux – Samara (1976)  1984\07 Je Reviendrai.wav
     Peak level 76.5 %
     Extraction speed 2.7 X
     Track quality 100.0 %
     Test CRC 30A3F834
     Copy CRC 30A3F834
     Accurately ripped (confidence 1)  [D13380FC]  (AR v2)
     Copy OK
Track  8
     Filename F:\Sket4er\Saint-Preux – Samara (1976)  1984\08 Paradis Artificiels.wav
     Peak level 100.0 %
     Extraction speed 2.9 X
     Track quality 100.0 %
     Test CRC 4C5C9B11
     Copy CRC 4C5C9B11
     Accurately ripped (confidence 1)  [978E8904]  (AR v2)
     Copy OK
Track  9
     Filename F:\Sket4er\Saint-Preux – Samara (1976)  1984\09 Le Souvenir De Samara.wav
     Peak level 71.3 %
     Extraction speed 2.6 X
     Track quality 100.0 %
     Test CRC A388D3AA
     Copy CRC A388D3AA
     Accurately ripped (confidence 1)  [8A359922]  (AR v2)
     Copy OK
Track 10
     Filename F:\Sket4er\Saint-Preux – Samara (1976)  1984\10 La Chanson De Samara.wav
     Peak level 69.1 %
     Extraction speed 2.8 X
     Track quality 100.0 %
     Test CRC 55EE9E25
     Copy CRC 55EE9E25
     Accurately ripped (confidence 1)  [4083B39D]  (AR v2)
     Copy OK
Track 11
     Filename F:\Sket4er\Saint-Preux – Samara (1976)  1984\11 A La Recherche De Samara.wav
     Peak level 92.6 %
     Extraction speed 3.2 X
     Track quality 100.0 %
     Test CRC 872F0BE5
     Copy CRC 872F0BE5
     Accurately ripped (confidence 1)  [3DAFD4DC]  (AR v2)
     Copy OK
All tracks accurately ripped
No errors occurred
End of status report
---- CUETools DB Plugin V2.1.6
[CTDB TOCID: gt3SLOEtVC58Tt.LIsWh.WogL38-] found
Submit result: gt3SLOEtVC58Tt.LIsWh.WogL38- has been confirmed
Track | CTDB Status
  1   | (1/1) Accurately ripped
  2   | (1/1) Accurately ripped
  3   | (1/1) Accurately ripped
  4   | (1/1) Accurately ripped
  5   | (1/1) Accurately ripped
  6   | (1/1) Accurately ripped
  7   | (1/1) Accurately ripped
  8   | (1/1) Accurately ripped
  9   | (1/1) Accurately ripped
 10   | (1/1) Accurately ripped
 11   | (1/1) Accurately ripped
==== Log checksum 5549C361727C4643E0089767DECE0A03E44B1242442F74F70D07B454DB556F24 ====
 
Содержание индексной карты (.CUE)
REM GENRE Neo-Classical
REM DATE 1976
REM DISCID 9A08D80B
REM COMMENT "ExactAudioCopy v1.3"
PERFORMER " Saint-Preux"
TITLE "Samara "
REM COMPOSER ""
FILE "01 Priere A Samara, La Musicienne.wav" WAVE
  TRACK 01 AUDIO
    TITLE "Priere A Samara, La Musicienne "
    PERFORMER " Saint-Preux"
    REM COMPOSER ""
    INDEX 01 00:00:00
FILE "02 L'ile De L'Albatros.wav" WAVE
  TRACK 02 AUDIO
    TITLE "L'ile De L'Albatros"
    PERFORMER " Saint-Preux"
    REM COMPOSER ""
    INDEX 01 00:00:00
FILE "03 Fantasmes.wav" WAVE
  TRACK 03 AUDIO
    TITLE "Fantasmes"
    PERFORMER " Saint-Preux"
    REM COMPOSER ""
    INDEX 01 00:00:00
FILE "04 L'Archipel Du Souvenir.wav" WAVE
  TRACK 04 AUDIO
    TITLE "L'Archipel Du Souvenir"
    PERFORMER " Saint-Preux"
    REM COMPOSER ""
    INDEX 01 00:00:00
FILE "05 Nostalgie.wav" WAVE
  TRACK 05 AUDIO
    TITLE "Nostalgie"
    PERFORMER " Saint-Preux"
    REM COMPOSER ""
    INDEX 01 00:00:00
FILE "06 Supplique A Samara.wav" WAVE
  TRACK 06 AUDIO
    TITLE "Supplique A Samara "
    PERFORMER " Saint-Preux"
    REM COMPOSER ""
    INDEX 01 00:00:00
FILE "07 Je Reviendrai.wav" WAVE
  TRACK 07 AUDIO
    TITLE "Je Reviendrai "
    PERFORMER " Saint-Preux"
    REM COMPOSER ""
    INDEX 01 00:00:00
FILE "08 Paradis Artificiels.wav" WAVE
  TRACK 08 AUDIO
    TITLE "Paradis Artificiels"
    PERFORMER " Saint-Preux"
    REM COMPOSER ""
    INDEX 01 00:00:00
FILE "09 Le Souvenir De Samara.wav" WAVE
  TRACK 09 AUDIO
    TITLE "Le Souvenir De Samara"
    PERFORMER " Saint-Preux"
    REM COMPOSER ""
    INDEX 01 00:00:00
FILE "10 La Chanson De Samara.wav" WAVE
  TRACK 10 AUDIO
    TITLE "La Chanson De Samara "
    PERFORMER " Saint-Preux"
    REM COMPOSER ""
    INDEX 01 00:00:00
FILE "11 A La Recherche De Samara.wav" WAVE
  TRACK 11 AUDIO
    TITLE "A La Recherche De Samara"
    PERFORMER " Saint-Preux"
    REM COMPOSER ""
    INDEX 01 00:00:00
 
Лог проверки качества
-----------------------
DON'T MODIFY THIS FILE
-----------------------
PERFORMER: auCDtect Task Manager, ver. 1.5.1RC4 build 1.5.1.5
Copyright (c) 2008-2010 y-soft. All rights reserved
http://y-soft.org
ANALYZER: auCDtect: CD records authenticity detector, version 0.8.2
Copyright (c) 2004 Oleg Berngardt. All rights reserved.
Copyright (c) 2004 Alexander Djourik. All rights reserved.
FILE: 11 A La Recherche De Samara.flac
  Size: 22013813 Hash: 556BFF13AB2B840E1D133102BA10BE44 Accuracy: -m0
  Conclusion: CDDA 76%
  Signature: 6381F5AEF2AC408316EF57C608FF30AD52EBE06A
FILE: 10 La Chanson De Samara.flac
  Size: 12810318 Hash: 8ACE669344075EABC549E08B7ACE5951 Accuracy: -m0
  Conclusion: CDDA 54%
  Signature: B35E9CC0376E5BDEA8FF1CEB64646D2F32F235EE
FILE: 09 Le Souvenir De Samara.flac
  Size: 13074690 Hash: DBA439CBFF64663FFB431149C5843A3F Accuracy: -m0
  Conclusion: CDDA 99%
  Signature: D9C9CF80DEA87B74B88F41602FBF5B44D507D2F9
FILE: 08 Paradis Artificiels.flac
  Size: 24698695 Hash: D84E3E05654D91CF0921B7E11E9EB142 Accuracy: -m0
  Conclusion: MPEG 95%
  Signature: BCC55DD8527FFCD268A97FEC4D733CD64A8C7207
FILE: 07 Je Reviendrai.flac
  Size: 22092534 Hash: 9632841E0912040F41176BD4CBC5729D Accuracy: -m0
  Conclusion: MPEG 95%
  Signature: D319BE0CB0736D1529F9E56EEDA9DF30F8B2F1FE
FILE: 06 Supplique À Samara.flac
  Size: 25718587 Hash: 19E8CA57DA911F929EE38F0F16397660 Accuracy: -m0
  Conclusion: CDDA 85%
  Signature: 7D7A5D9A08AAF6EF6115ABC0CA17A7E488F40A42
FILE: 05 Nostalgie.flac
  Size: 12785399 Hash: 6D91417108D7DF3188630C3F7F69BA4A Accuracy: -m0
  Conclusion: CDDA 92%
  Signature: B330DBFAE0F78DEBED245AABF9FED4330DAECABD
FILE: 04 L'Archipel Du Souvenir.flac
  Size: 13696082 Hash: 6546802ABB40B9C83083421188083225 Accuracy: -m0
  Conclusion: CDDA 100%
  Signature: FCBDBB17A7BF76F0369FF05B5573F9761BB7BB3A
FILE: 03 Fantasmes.flac
  Size: 20676117 Hash: 3E02042E3FC59B5EC6114921BFD3DC63 Accuracy: -m0
  Conclusion: MPEG 95%
  Signature: 10E0C8B59439B8E6FB7A50DF24DFC7F45E975C25
FILE: 02 L'ile De L'Albatros.flac
  Size: 13037677 Hash: A3ADD287E7ED1A20D952B7AAA74882B1 Accuracy: -m0
  Conclusion: CDDA 43%
  Signature: 0E33A529C234D73B7E19154F0C402ECDB636A528
FILE: 01 Priere À Samara, La Musicienne.flac
  Size: 21757641 Hash: 0F25829C47E3F971874ADFBDB0A84DC1 Accuracy: -m0
  Conclusion: MPEG 95%
  Signature: 3AAC702C4C68BC35F23261A470BAEB00BE7AB5F8

 
Замер динамического диапазона (DR)
foobar2000 1.3.9 / Замер динамического диапазона (DR) 1.1.1
Дата отчёта:  2018-11-19 18:01:11
--------------------------------------------------------------------------------
Анализ:    Saint-Preux / Samara
--------------------------------------------------------------------------------
DR         Пики         RMS           Продолжительность трека
--------------------------------------------------------------------------------
DR13      -1.73 дБ   -18.58 дБ      2:55 02-L'ile De L'Albatros
DR12      -0.75 дБ   -14.80 дБ      3:36 03-Fantasmes
DR11      -7.23 дБ   -20.47 дБ      2:54 04-L'Archipel Du Souvenir
DR11      -1.81 дБ   -16.89 дБ      2:30 05-Nostalgie
DR11      -2.32 дБ   -15.50 дБ      3:35 07-Je Reviendrai
DR11       0.00 дБ   -13.38 дБ      4:12 08-Paradis Artificiels
DR10      -2.93 дБ   -15.87 дБ      2:22 09-Le Souvenir De Samara
DR12      -3.20 дБ   -19.05 дБ      2:35 10-La Chanson De Samara
DR11      -0.67 дБ   -15.66 дБ      4:47 11-A La Recherche De Samara
--------------------------------------------------------------------------------
Количество треков: 9
Реальные значения DR: DR11
Частота:   44100 Гц
Каналов:   2
Разрядность:   16
Битрейт:   610 кбит/с
Кодек:   FLAC
================================================================================
 
1979 - Atlantis (Polydor 823 255-2) 00:42:13

Partie I:
01. Ouverture
02. Sunken Continent
03. From The Seven Cities
Partie II:
04. The Last Day
05. Atlantis March
Partie III:
06. Sea Of Vision (1)
07. Sea Of Vision (2)
08. Save Me Atlantis
09. Orichalc
10. The Secret Of Atlantis

 
Лог создания рипа
Exact Audio Copy V1.3 from 2. September 2016
EAC extraction logfile from 18. November 2018, 15:08
Saint-Preux / Atlantis
Used drive  : TSSTcorpCDDVDW SH-224DB   Adapter: 1  ID: 0
Read mode               : Secure
Utilize accurate stream : Yes
Defeat audio cache      : Yes
Make use of C2 pointers : No
Read offset correction                      : 6
Overread into Lead-In and Lead-Out          : No
Fill up missing offset samples with silence : Yes
Delete leading and trailing silent blocks   : No
Null samples used in CRC calculations       : Yes
Used interface                              : Native Win32 interface for Win NT & 2000
Gap handling                                : Appended to previous track
Used output format              : User Defined Encoder
Selected bitrate                : 1024 kBit/s
Quality                         : High
Add ID3 tag                     : No
Command line compressor         : C:\Program Files (x86)\Exact Audio Copy\win64\flac.exe
Additional command line options : -8 -V -T "ARTIST=%artist%" -T "TITLE=%title%" -T "ALBUM=%albumtitle%" -T "DATE=%year%" -T "TRACKNUMBER=%tracknr%" -T "GENRE=%genre%" -T "COMMENT=%comment%" %source% -o %dest%
TOC of the extracted CD
     Track |   Start  |  Length  | Start sector | End sector
    ---------------------------------------------------------
        1  |  0:00.32 |  2:39.03 |        32    |    11959
        2  |  2:39.35 |  2:45.35 |     11960    |    24369
        3  |  5:24.70 |  5:52.65 |     24370    |    50834
        4  | 11:17.60 |  4:12.42 |     50835    |    69776
        5  | 15:30.27 |  3:34.60 |     69777    |    85886
        6  | 19:05.12 |  3:14.28 |     85887    |   100464
        7  | 22:19.40 |  4:48.45 |    100465    |   122109
        8  | 27:08.10 |  7:07.32 |    122110    |   154166
        9  | 34:15.42 |  3:21.60 |    154167    |   169301
       10  | 37:37.27 |  4:35.55 |    169302    |   189981
Track  1
     Filename F:\Sket4er\Saint-Preux – Atlantis (1979)  1984\01 Ouverture.wav
     Pre-gap length  0:00:02.32
     Peak level 19.5 %
     Extraction speed 1.6 X
     Track quality 99.9 %
     Test CRC 503BA547
     Copy CRC 503BA547
     Cannot be verified as accurate (confidence 2)  [331913C9], AccurateRip returned [9573B438]  (AR v2)
     Copy OK
Track  2
     Filename F:\Sket4er\Saint-Preux – Atlantis (1979)  1984\02 Sunken Continent.wav
     Peak level 46.4 %
     Extraction speed 1.9 X
     Track quality 100.0 %
     Test CRC 7178C59F
     Copy CRC 7178C59F
     Cannot be verified as accurate (confidence 2)  [CD501087], AccurateRip returned [2B06D147]  (AR v2)
     Copy OK
Track  3
     Filename F:\Sket4er\Saint-Preux – Atlantis (1979)  1984\03 From The Seven Cities.wav
     Peak level 61.0 %
     Extraction speed 2.0 X
     Track quality 99.9 %
     Test CRC B1487C94
     Copy CRC B1487C94
     Cannot be verified as accurate (confidence 2)  [F524D4A0], AccurateRip returned [12564C90]  (AR v2)
     Copy OK
Track  4
     Filename F:\Sket4er\Saint-Preux – Atlantis (1979)  1984\04 The Last Day.wav
     Peak level 61.8 %
     Extraction speed 2.1 X
     Track quality 100.0 %
     Test CRC 1AD60836
     Copy CRC 1AD60836
     Cannot be verified as accurate (confidence 2)  [2C34BAE3], AccurateRip returned [1F34DB03]  (AR v2)
     Copy OK
Track  5
     Filename F:\Sket4er\Saint-Preux – Atlantis (1979)  1984\05 Atlantis March.wav
     Peak level 55.1 %
     Extraction speed 1.8 X
     Track quality 99.9 %
     Test CRC AA682453
     Copy CRC AA682453
     Cannot be verified as accurate (confidence 2)  [92AF364C], AccurateRip returned [1447EA1D]  (AR v2)
     Copy OK
Track  6
     Filename F:\Sket4er\Saint-Preux – Atlantis (1979)  1984\06 Sea Of Vision 1.wav
     Peak level 30.8 %
     Extraction speed 2.0 X
     Track quality 100.0 %
     Test CRC 06C78069
     Copy CRC 06C78069
     Cannot be verified as accurate (confidence 2)  [695E70E6], AccurateRip returned [C98E02E6]  (AR v2)
     Copy OK
Track  7
     Filename F:\Sket4er\Saint-Preux – Atlantis (1979)  1984\07 Sea Of Vision 2.wav
     Peak level 51.4 %
     Extraction speed 2.1 X
     Track quality 100.0 %
     Test CRC 94D75E45
     Copy CRC 94D75E45
     Cannot be verified as accurate (confidence 2)  [9BCC6CE1], AccurateRip returned [420E38CD]  (AR v2)
     Copy OK
Track  8
     Filename F:\Sket4er\Saint-Preux – Atlantis (1979)  1984\08 Save Me Atlantis.wav
     Peak level 57.0 %
     Extraction speed 2.2 X
     Track quality 100.0 %
     Test CRC 39E74E82
     Copy CRC 39E74E82
     Cannot be verified as accurate (confidence 2)  [CCE10D21], AccurateRip returned [13B56F89]  (AR v2)
     Copy OK
Track  9
     Filename F:\Sket4er\Saint-Preux – Atlantis (1979)  1984\09 Orichalc.wav
     Peak level 55.8 %
     Extraction speed 2.0 X
     Track quality 100.0 %
     Test CRC 236364E9
     Copy CRC 236364E9
     Cannot be verified as accurate (confidence 2)  [05FC1109], AccurateRip returned [C6C09C4D]  (AR v2)
     Copy OK
Track 10
     Filename F:\Sket4er\Saint-Preux – Atlantis (1979)  1984\10 The Secret Of Atlantis.wav
     Peak level 52.1 %
     Extraction speed 2.1 X
     Track quality 100.0 %
     Test CRC A937DCAC
     Copy CRC A937DCAC
     Cannot be verified as accurate (confidence 2)  [3F2693EC], AccurateRip returned [3BFB876F]  (AR v2)
     Copy OK
No tracks could be verified as accurate
You may have a different pressing from the one(s) in the database
No errors occurred
End of status report
---- CUETools DB Plugin V2.1.6
[CTDB TOCID: UAg6EB6ivs66AkWXRQM8F48wxVo-] found
Submit result: UAg6EB6ivs66AkWXRQM8F48wxVo- has been confirmed
Track | CTDB Status
  1   | (3/3) Accurately ripped
  2   | (3/3) Accurately ripped
  3   | (3/3) Accurately ripped
  4   | (3/3) Accurately ripped
  5   | (3/3) Accurately ripped
  6   | (3/3) Accurately ripped
  7   | (3/3) Accurately ripped
  8   | (3/3) Accurately ripped
  9   | (3/3) Accurately ripped
 10   | (3/3) Accurately ripped
==== Log checksum 16435BB5DCE178787145712B1487050142A0931FC7E7BCF964F1FFD38D3BE66D ====
 
Содержание индексной карты (.CUE)
REM GENRE Neo-Classical
REM DATE 1984
REM DISCID 7909E50A
REM COMMENT "ExactAudioCopy v1.3"
PERFORMER "Saint-Preux"
TITLE "Atlantis"
REM COMPOSER ""
FILE "01 Ouverture.wav" WAVE
  TRACK 01 AUDIO
    TITLE "Ouverture"
    PERFORMER "Saint-Preux"
    REM COMPOSER ""
    PREGAP 00:00:32
    INDEX 01 00:00:00
FILE "02 Sunken Continent.wav" WAVE
  TRACK 02 AUDIO
    TITLE "Sunken Continent"
    PERFORMER "Saint-Preux"
    REM COMPOSER ""
    INDEX 01 00:00:00
FILE "03 From The Seven Cities.wav" WAVE
  TRACK 03 AUDIO
    TITLE "From The Seven Cities"
    PERFORMER "Saint-Preux"
    REM COMPOSER ""
    INDEX 01 00:00:00
FILE "04 The Last Day.wav" WAVE
  TRACK 04 AUDIO
    TITLE "The Last Day"
    PERFORMER "Saint-Preux"
    REM COMPOSER ""
    INDEX 01 00:00:00
FILE "05 Atlantis March.wav" WAVE
  TRACK 05 AUDIO
    TITLE "Atlantis March"
    PERFORMER "Saint-Preux"
    REM COMPOSER ""
    INDEX 01 00:00:00
FILE "06 Sea Of Vision 1.wav" WAVE
  TRACK 06 AUDIO
    TITLE "Sea Of Vision 1"
    PERFORMER "Saint-Preux"
    REM COMPOSER ""
    INDEX 01 00:00:00
FILE "07 Sea Of Vision 2.wav" WAVE
  TRACK 07 AUDIO
    TITLE "Sea Of Vision 2"
    PERFORMER "Saint-Preux"
    REM COMPOSER ""
    INDEX 01 00:00:00
FILE "08 Save Me Atlantis.wav" WAVE
  TRACK 08 AUDIO
    TITLE "Save Me Atlantis"
    PERFORMER "Saint-Preux"
    REM COMPOSER ""
    INDEX 01 00:00:00
FILE "09 Orichalc.wav" WAVE
  TRACK 09 AUDIO
    TITLE "Orichalc"
    PERFORMER "Saint-Preux"
    REM COMPOSER ""
    INDEX 01 00:00:00
FILE "10 The Secret Of Atlantis.wav" WAVE
  TRACK 10 AUDIO
    TITLE "The Secret Of Atlantis"
    PERFORMER "Saint-Preux"
    REM COMPOSER ""
    INDEX 01 00:00:00
 
Лог проверки качества
-----------------------
DON'T MODIFY THIS FILE
-----------------------
PERFORMER: auCDtect Task Manager, ver. 1.5.1RC4 build 1.5.1.5
Copyright (c) 2008-2010 y-soft. All rights reserved
http://y-soft.org
ANALYZER: auCDtect: CD records authenticity detector, version 0.8.2
Copyright (c) 2004 Oleg Berngardt. All rights reserved.
Copyright (c) 2004 Alexander Djourik. All rights reserved.
FILE: 10 The Secret Of Atlantis.flac
  Size: 21522091 Hash: FD3A0FC1CC072502A2E87EBEACBA4862 Accuracy: -m0
  Conclusion: CDDA 100%
  Signature: BD6F43BF3D879672C1672E92B4B4A1CB04EF9AD1
FILE: 09 Orichalc.flac
  Size: 14690014 Hash: 72B5BCA433FDC8C7C34A258508CF78DC Accuracy: -m0
  Conclusion: CDDA 100%
  Signature: 2216628F95058192D489139EAF3E0E75CA9C75FB
FILE: 08 Save Me Atlantis.flac
  Size: 37405486 Hash: 60274306C718673367840EBA7BA595CE Accuracy: -m0
  Conclusion: CDDA 100%
  Signature: 2B1A0E7ECDB65074C5ADACB3E528F7A167E02155
FILE: 07 Sea Of Vision 2.flac
  Size: 26066211 Hash: 34BAAF5153AD37B84DB3A2A0D0E42691 Accuracy: -m0
  Conclusion: CDDA 100%
  Signature: 0E4E595E71FD8ED7B7307E40D61998DB38D52CA8
FILE: 06 Sea Of Vision 1.flac
  Size: 13157670 Hash: A1255C6060DC18DB42983D7E37C6750A Accuracy: -m0
  Conclusion: CDDA 100%
  Signature: BE98552BC91DC85CC789F9BBDBE5ACCC09D57C2A
FILE: 05 Atlantis March.flac
  Size: 17076356 Hash: 189A36F3F6436E4F2989FAD3EA4A9AC6 Accuracy: -m0
  Conclusion: CDDA 100%
  Signature: 39A28C54EB7C2732007B273F7BFF7B7BD144D253
FILE: 04 The Last Day.flac
  Size: 22609426 Hash: 059CEDC25F1F2D152F22FFFCE036ADB3 Accuracy: -m0
  Conclusion: CDDA 100%
  Signature: 6E5839BF52DF5539C821B486245F912A84840901
FILE: 03 From The Seven Cities.flac
  Size: 26922998 Hash: 5A68AE8413217B174AA4D6E8D26ECC3A Accuracy: -m0
  Conclusion: CDDA 100%
  Signature: B2D9B74A1886CC3EFFB8E80944754A994337B7D3
FILE: 02 Sunken Continent.flac
  Size: 12614961 Hash: 613FDD408A8D21B8F44D5F59E5C02BF9 Accuracy: -m0
  Conclusion: CDDA 100%
  Signature: 1669A82CBDC519F132CFD39C8D6521F5092EB4B8
FILE: 01 Ouverture.flac
  Size: 10844780 Hash: 231B3B2DA37520CACEF47423DF764A72 Accuracy: -m0
  Conclusion: CDDA 100%
  Signature: 73152D21DFA93AE7A8665E9E28B6F02E04E1E5B2
 
Замер динамического диапазона (DR)
foobar2000 1.3.9 / Замер динамического диапазона (DR) 1.1.1
Дата отчёта:  2018-11-19 18:01:31
--------------------------------------------------------------------------------
Анализ:   Saint-Preux / Atlantis
--------------------------------------------------------------------------------
DR         Пики         RMS           Продолжительность трека
--------------------------------------------------------------------------------
DR14     -14.19 дБ   -34.04 дБ      2:39 01-Ouverture
DR14      -6.66 дБ   -27.04 дБ      2:45 02-Sunken Continent
DR15      -4.29 дБ   -23.73 дБ      5:53 03-From The Seven Cities
DR14      -4.17 дБ   -24.66 дБ      4:13 04-The Last Day
DR11      -5.17 дБ   -22.11 дБ      3:35 05-Atlantis March
DR14     -10.21 дБ   -29.60 дБ      3:14 06-Sea Of Vision 1
DR14      -5.77 дБ   -23.38 дБ      4:49 07-Sea Of Vision 2
DR12      -4.87 дБ   -21.55 дБ      7:07 08-Save Me Atlantis
DR16      -5.06 дБ   -26.35 дБ      3:22 09-Orichalc
DR13      -5.65 дБ   -23.34 дБ      4:36 10-The Secret Of Atlantis
--------------------------------------------------------------------------------
Количество треков: 10
Реальные значения DR: DR14
Частота:   44100 Гц
Каналов:   2
Разрядность:   16
Битрейт:   623 кбит/с
Кодек:   FLAC
================================================================================
 
1986 - Odyssée (Quartz's QTS CD 18213) 00:41:19

Tableau I: Recit
01. Profondeurs 00:21
02. Le Royaume De Neptune 04:31
Tableau II: Voyage
03. Symphonie Du Temps Perdu 03:06
04. Fantasme 03:01
05. Les Violons De La Mer 03:04
06. Rhapsodie 03:44
07. Le Chant Des Vagues 01:02
08. Vision D'enfance 02:31
09. Odyssee 02:37
10. Sortilege 03:30
Tableau III: Retour
11. L'Ile Heureuse 00:59
12. Symphonie Revee 03:38
13. Romance 03:25
14. Hymne 02:12
15. Symphonie Eternelle 03:38

 
Лог создания рипа
Exact Audio Copy V1.3 from 2. September 2016
EAC extraction logfile from 18. November 2018, 19:24
Saint-Preux / Odyssée
Used drive  : TSSTcorpCDDVDW SH-224DB   Adapter: 1  ID: 0
Read mode               : Secure
Utilize accurate stream : Yes
Defeat audio cache      : Yes
Make use of C2 pointers : No
Read offset correction                      : 6
Overread into Lead-In and Lead-Out          : No
Fill up missing offset samples with silence : Yes
Delete leading and trailing silent blocks   : No
Null samples used in CRC calculations       : Yes
Used interface                              : Native Win32 interface for Win NT & 2000
Gap handling                                : Appended to previous track
Used output format              : User Defined Encoder
Selected bitrate                : 1024 kBit/s
Quality                         : High
Add ID3 tag                     : No
Command line compressor         : C:\Program Files (x86)\Exact Audio Copy\win64\flac.exe
Additional command line options : -8 -V -T "ARTIST=%artist%" -T "TITLE=%title%" -T "ALBUM=%albumtitle%" -T "DATE=%year%" -T "TRACKNUMBER=%tracknr%" -T "GENRE=%genre%" -T "COMMENT=%comment%" %source% -o %dest%
TOC of the extracted CD
     Track |   Start  |  Length  | Start sector | End sector
    ---------------------------------------------------------
        1  |  0:00.00 |  0:21.20 |         0    |     1594
        2  |  0:21.20 |  4:31.35 |      1595    |    21954
        3  |  4:52.55 |  3:05.67 |     21955    |    35896
        4  |  7:58.47 |  3:01.23 |     35897    |    49494
        5  | 10:59.70 |  3:03.72 |     49495    |    63291
        6  | 14:03.67 |  3:44.28 |     63292    |    80119
        7  | 17:48.20 |  1:01.67 |     80120    |    84761
        8  | 18:50.12 |  2:30.50 |     84762    |    96061
        9  | 21:20.62 |  2:36.63 |     96062    |   107824
       10  | 23:57.50 |  3:29.70 |    107825    |   123569
       11  | 27:27.45 |  0:58.70 |    123570    |   127989
       12  | 28:26.40 |  3:38.15 |    127990    |   144354
       13  | 32:04.55 |  3:24.67 |    144355    |   159721
       14  | 35:29.47 |  2:12.20 |    159722    |   169641
       15  | 37:41.67 |  3:37.45 |    169642    |   185961
Track  1
     Filename F:\Sket4er\Saint-Preux – Odyssée  1986\01 Profondeurs.wav
     Pre-gap length  0:00:02.00
     Peak level 15.1 %
     Extraction speed 0.7 X
     Track quality 100.0 %
     Test CRC EF3D946B
     Copy CRC EF3D946B
     Accurately ripped (confidence 2)  [65FE701A]  (AR v1)
     Copy OK
Track  2
     Filename F:\Sket4er\Saint-Preux – Odyssée  1986\02 Le Royaume De Neptune.wav
     Peak level 100.0 %
     Extraction speed 2.0 X
     Track quality 100.0 %
     Test CRC 51D591DA
     Copy CRC 51D591DA
     Accurately ripped (confidence 2)  [C3439832]  (AR v1)
     Copy OK
Track  3
     Filename F:\Sket4er\Saint-Preux – Odyssée  1986\03 Symphonie Du Temps Perdu.wav
     Peak level 81.5 %
     Extraction speed 1.7 X
     Track quality 99.9 %
     Test CRC 3E53BD2C
     Copy CRC 3E53BD2C
     Accurately ripped (confidence 2)  [FBC70F6B]  (AR v1)
     Copy OK
Track  4
     Filename F:\Sket4er\Saint-Preux – Odyssée  1986\04 Fantasme.wav
     Peak level 100.0 %
     Extraction speed 2.1 X
     Track quality 100.0 %
     Test CRC 99C43CC4
     Copy CRC 99C43CC4
     Accurately ripped (confidence 2)  [FC1A78AB]  (AR v1)
     Copy OK
Track  5
     Filename F:\Sket4er\Saint-Preux – Odyssée  1986\05 Les Violons De La Mer.wav
     Peak level 65.7 %
     Extraction speed 2.3 X
     Track quality 100.0 %
     Test CRC F6285273
     Copy CRC F6285273
     Accurately ripped (confidence 2)  [F9269ECF]  (AR v1)
     Copy OK
Track  6
     Filename F:\Sket4er\Saint-Preux – Odyssée  1986\06 Rhapsodie.wav
     Peak level 77.6 %
     Extraction speed 2.5 X
     Track quality 100.0 %
     Test CRC 4DEC2121
     Copy CRC 4DEC2121
     Accurately ripped (confidence 2)  [BE26DC9E]  (AR v1)
     Copy OK
Track  7
     Filename F:\Sket4er\Saint-Preux – Odyssée  1986\07 Le Chant Des Vagues.wav
     Peak level 41.7 %
     Extraction speed 1.8 X
     Track quality 100.0 %
     Test CRC A9E365AD
     Copy CRC A9E365AD
     Accurately ripped (confidence 2)  [D420F0CA]  (AR v1)
     Copy OK
Track  8
     Filename F:\Sket4er\Saint-Preux – Odyssée  1986\08 Vision D'enfance.wav
     Peak level 84.4 %
     Extraction speed 2.4 X
     Track quality 100.0 %
     Test CRC D9993889
     Copy CRC D9993889
     Accurately ripped (confidence 2)  [8479925B]  (AR v1)
     Copy OK
Track  9
     Filename F:\Sket4er\Saint-Preux – Odyssée  1986\09 Odyssée.wav
     Peak level 100.0 %
     Extraction speed 2.5 X
     Track quality 100.0 %
     Test CRC B2881138
     Copy CRC B2881138
     Accurately ripped (confidence 2)  [FF7A479E]  (AR v1)
     Copy OK
Track 10
     Filename F:\Sket4er\Saint-Preux – Odyssée  1986\10 Sortiléges.wav
     Peak level 100.0 %
     Extraction speed 2.8 X
     Track quality 100.0 %
     Test CRC 701F2489
     Copy CRC 701F2489
     Accurately ripped (confidence 2)  [4D2B8E7B]  (AR v1)
     Copy OK
Track 11
     Filename F:\Sket4er\Saint-Preux – Odyssée  1986\11 L'ile Heureuse.wav
     Peak level 57.0 %
     Extraction speed 2.0 X
     Track quality 100.0 %
     Test CRC A8CF7FC6
     Copy CRC A8CF7FC6
     Accurately ripped (confidence 2)  [CE830D3B]  (AR v1)
     Copy OK
Track 12
     Filename F:\Sket4er\Saint-Preux – Odyssée  1986\12 Symphonie Rêveé.wav
     Peak level 77.1 %
     Extraction speed 2.9 X
     Track quality 100.0 %
     Test CRC D74F9A6D
     Copy CRC D74F9A6D
     Accurately ripped (confidence 2)  [F7338037]  (AR v1)
     Copy OK
Track 13
     Filename F:\Sket4er\Saint-Preux – Odyssée  1986\13 Romance.wav
     Peak level 77.9 %
     Extraction speed 3.0 X
     Track quality 100.0 %
     Test CRC 96DBEA52
     Copy CRC 96DBEA52
     Accurately ripped (confidence 2)  [C7A51E3D]  (AR v1)
     Copy OK
Track 14
     Filename F:\Sket4er\Saint-Preux – Odyssée  1986\14 Hymne.wav
     Peak level 100.0 %
     Extraction speed 2.8 X
     Track quality 100.0 %
     Test CRC 557196C9
     Copy CRC 557196C9
     Accurately ripped (confidence 2)  [AB6C8894]  (AR v1)
     Copy OK
Track 15
     Filename F:\Sket4er\Saint-Preux – Odyssée  1986\15 Symphonie Éternelle.wav
     Peak level 59.7 %
     Extraction speed 3.2 X
     Track quality 100.0 %
     Test CRC 429C18FD
     Copy CRC 429C18FD
     Accurately ripped (confidence 1)  [F1EA0875]  (AR v1)
     Copy OK
All tracks accurately ripped
No errors occurred
End of status report
---- CUETools DB Plugin V2.1.6
[CTDB TOCID: 7PWpN9oKLDLPt3sH3ONGw9xzITQ-] found
Submit result: 7PWpN9oKLDLPt3sH3ONGw9xzITQ- has been uploaded
Track | CTDB Status
  1   | (1/2) Accurately ripped
  2   | (2/2) Accurately ripped
  3   | (1/2) Accurately ripped
  4   | (2/2) Accurately ripped
  5   | (2/2) Accurately ripped
  6   | (2/2) Accurately ripped
  7   | (2/2) Accurately ripped
  8   | (2/2) Accurately ripped
  9   | (2/2) Accurately ripped
 10   | (1/2) Accurately ripped
 11   | (1/2) Accurately ripped
 12   | (1/2) Accurately ripped
 13   | (1/2) Accurately ripped
 14   | (2/2) Accurately ripped
 15   | (1/2) Accurately ripped, or (1/2) differs in 72 samples @01:25:28,02:32:38-02:32:39
If you are sure that your rip contains errors, you can use CUETools to repair it.
==== Log checksum BAAF5DB60806358171EA5761A2BA2A09B342E847019BB8C52DDC89E44C9B709B ====
 
Содержание индексной карты (.CUE)
REM GENRE Neo-Classical
REM DATE 1986
REM DISCID B709AF0F
REM COMMENT "ExactAudioCopy v1.3"
PERFORMER "Saint-Preux"
TITLE "Odyssee "
REM COMPOSER ""
FILE "01 Profondeurs.wav" WAVE
  TRACK 01 AUDIO
    TITLE "Profondeurs"
    PERFORMER "Saint-Preux"
    REM COMPOSER ""
    INDEX 01 00:00:00
FILE "02 Le Royaume De Neptune.wav" WAVE
  TRACK 02 AUDIO
    TITLE "Le Royaume De Neptune"
    PERFORMER "Saint-Preux"
    REM COMPOSER ""
    INDEX 01 00:00:00
FILE "03 Symphonie Du Temps Perdu.wav" WAVE
  TRACK 03 AUDIO
    TITLE "Symphonie Du Temps Perdu"
    PERFORMER "Saint-Preux"
    REM COMPOSER ""
    INDEX 01 00:00:00
FILE "04 Fantasme.wav" WAVE
  TRACK 04 AUDIO
    TITLE "Fantasme"
    PERFORMER "Saint-Preux"
    REM COMPOSER ""
    INDEX 01 00:00:00
FILE "05 Les Violons De La Mer.wav" WAVE
  TRACK 05 AUDIO
    TITLE "Les Violons De La Mer"
    PERFORMER "Saint-Preux"
    REM COMPOSER ""
    INDEX 01 00:00:00
FILE "06 Rhapsodie.wav" WAVE
  TRACK 06 AUDIO
    TITLE "Rhapsodie"
    PERFORMER "Saint-Preux"
    REM COMPOSER ""
    INDEX 01 00:00:00
FILE "07 Le Chant Des Vagues.wav" WAVE
  TRACK 07 AUDIO
    TITLE "Le Chant Des Vagues"
    PERFORMER "Saint-Preux"
    REM COMPOSER ""
    INDEX 01 00:00:00
FILE "08 Vision D'enfance.wav" WAVE
  TRACK 08 AUDIO
    TITLE "Vision D'enfance"
    PERFORMER "Saint-Preux"
    REM COMPOSER ""
    INDEX 01 00:00:00
FILE "09 Odyssee.wav" WAVE
  TRACK 09 AUDIO
    TITLE "Odyssee "
    PERFORMER "Saint-Preux"
    REM COMPOSER ""
    INDEX 01 00:00:00
FILE "10 Sortileges.wav" WAVE
  TRACK 10 AUDIO
    TITLE "Sortileges"
    PERFORMER "Saint-Preux"
    REM COMPOSER ""
    INDEX 01 00:00:00
FILE "11 L'ile Heureuse.wav" WAVE
  TRACK 11 AUDIO
    TITLE "L'ile Heureuse"
    PERFORMER "Saint-Preux"
    REM COMPOSER ""
    INDEX 01 00:00:00
FILE "12 Symphonie Revee.wav" WAVE
  TRACK 12 AUDIO
    TITLE "Symphonie Revee"
    PERFORMER "Saint-Preux"
    REM COMPOSER ""
    INDEX 01 00:00:00
FILE "13 Romance.wav" WAVE
  TRACK 13 AUDIO
    TITLE "Romance"
    PERFORMER "Saint-Preux"
    REM COMPOSER ""
    INDEX 01 00:00:00
FILE "14 Hymne.wav" WAVE
  TRACK 14 AUDIO
    TITLE "Hymne"
    PERFORMER "Saint-Preux"
    REM COMPOSER ""
    INDEX 01 00:00:00
FILE "15 Symphonie Eternelle.wav" WAVE
  TRACK 15 AUDIO
    TITLE "Symphonie Eternelle"
    PERFORMER "Saint-Preux"
    REM COMPOSER ""
    INDEX 01 00:00:00
 
Лог проверки качества
-----------------------
DON'T MODIFY THIS FILE
-----------------------
PERFORMER: auCDtect Task Manager, ver. 1.5.1RC4 build 1.5.1.5
Copyright (c) 2008-2010 y-soft. All rights reserved
http://y-soft.org
ANALYZER: auCDtect: CD records authenticity detector, version 0.8.2
Copyright (c) 2004 Oleg Berngardt. All rights reserved.
Copyright (c) 2004 Alexander Djourik. All rights reserved.
FILE: 15 Symphonie Éternelle.flac
  Size: 23736060 Hash: 95F56417693F6785195D5D94360DC66E Accuracy: -m0
  Conclusion: CDDA 42%
  Signature: 4C298694DA191C0B04FF8CB07441C511F8840935
FILE: 14 Hymne.flac
  Size: 14847107 Hash: 2B58962A471BFF9DDF0D6C74B4171F04 Accuracy: -m0
  Conclusion: ???
  Signature: 534A15D43C1138A4DC0E0DC60F794238E7137BB3
FILE: 13 Romance.flac
  Size: 25875953 Hash: 95EC49FFC26EBBA28EAF5428B0D3DF97 Accuracy: -m0
  Conclusion: CDDA 100%
  Signature: CAAD43261E23E526CCE273D593941EFADAB7C316
FILE: 12 Symphonie Rêveé.flac
  Size: 25100232 Hash: 1A59BFDA723E09E4903E60CA8D858CD1 Accuracy: -m0
  Conclusion: CDDA 94%
  Signature: 6A21E5DBED1639AEA10BCD301527759C33D48A0D
FILE: 11 L'ile Heureuse.flac
  Size: 6445009 Hash: 71D541510E897C5F5773733868C3C3FA Accuracy: -m0
  Conclusion: CDDA 76%
  Signature: 099BBA511BB46E24D931F73B289A8EF3CC22307C
FILE: 10 Sortiléges.flac
  Size: 18259715 Hash: 69AA16BCA2B699CADAAC7B70D58A8385 Accuracy: -m0
  Conclusion: ???
  Signature: D47FABA64F7B1790042BE4BC9A56C367554115E6
FILE: 09 Odyssée.flac
  Size: 21313052 Hash: 37C073F7EFD51A824FD5CE966F282266 Accuracy: -m0
  Conclusion: ???
  Signature: 22922755D449EDBC72DF6539504B302F65FC7AA6
FILE: 08 Vision D'enfance.flac
  Size: 19140230 Hash: EA066639AC9A54BF0267E2914573FB0F Accuracy: -m0
  Conclusion: CDDA 87%
  Signature: 7403F67C0BF57A44E1E473CC14E929A744D78C49
FILE: 07 Le Chant Des Vagues.flac
  Size: 6720842 Hash: 70F2398366BDA988036C8A50C9774237 Accuracy: -m0
  Conclusion: CDDA 54%
  Signature: 471D4030283014B518BC9302E4EE3E7F1728F9A1
FILE: 06 Rhapsodie.flac
  Size: 23537605 Hash: 648018455D8B6D369A079AE1BCFD5888 Accuracy: -m0
  Conclusion: CDDA 62%
  Signature: C3BD4C03156BC871FC9F928AABFDC7F1401E5B66
FILE: 05 Les Violons De La Mer.flac
  Size: 20102765 Hash: C8F633961FB7E206D5828B13CBDE46E7 Accuracy: -m0
  Conclusion: CDDA 54%
  Signature: D977278182E41573CF2126EF43DBE6548989A5C8
FILE: 04 Fantasme.flac
  Size: 21893956 Hash: 6EF71070D3646CF5701B4D0CA862EABF Accuracy: -m0
  Conclusion: ???
  Signature: 853209388E1B3B567C4A9E6218958D43180344C7
FILE: 03 Symphonie Du Temps Perdu.flac
  Size: 20324260 Hash: 7F6F5CC61A519DEAC355BB02FFDA628C Accuracy: -m0
  Conclusion: CDDA 43%
  Signature: 450D5F09CAB68B902619124DB33508E2579CFC4E
FILE: 02 Le Royaume De Neptune.flac
  Size: 29672856 Hash: E4276E0A31BAF2070949A60FCE5D6964 Accuracy: -m0
  Conclusion: ???
  Signature: AC4C2A34E5196FE61E69ADFFA97633BF9A8CF527
FILE: 01 Profondeurs.flac
  Size: 1689572 Hash: C721CF44EEC846D656DB66384A58A68A Accuracy: -m0
  Conclusion: CDDA 43%
  Signature: 42BD106BDE9FDF3A131C0E7268F27A48BB14F736

 
Замер динамического диапазона (DR)
foobar2000 1.3.9 / Замер динамического диапазона (DR) 1.1.1
Дата отчёта:  2019-02-04 10:59:48
--------------------------------------------------------------------------------
Анализ:   Saint-Preux / Odyssée
--------------------------------------------------------------------------------
DR         Пики         RMS           Продолжительность трека
--------------------------------------------------------------------------------
DR7      -16.42 дБ   -28.74 дБ      0:21 01-Profondeurs
DR15       0.00 дБ   -18.03 дБ      4:31 02-Le Royaume De Neptune
DR11      -1.77 дБ   -17.41 дБ      3:06 03-Symphonie Du Temps Perdu
DR13       0.00 дБ   -14.73 дБ      3:01 04-Fantasme
DR12      -3.64 дБ   -18.00 дБ      3:04 05-Les Violons De La Mer
DR10      -2.20 дБ   -15.85 дБ      3:44 06-Rhapsodie
DR9       -7.58 дБ   -18.59 дБ      1:02 07-Le Chant Des Vagues
DR10      -1.47 дБ   -14.28 дБ      2:31 08-Vision D'enfance
DR10      -4.88 дБ   -17.78 дБ      0:59 11-L'ile Heureuse
DR10      -2.17 дБ   -15.00 дБ      3:25 13-Romance
DR14       0.00 дБ   -16.99 дБ      2:12 14-Hymne
--------------------------------------------------------------------------------
Количество треков: 11
Реальные значения DR: DR11
Частота:   44100 Гц
Каналов:   2
Разрядность:   16
Битрейт:   892 кбит/с
Кодек:   FLAC
================================================================================
Состав:

1976 — Samara:

  • Bass – Didier Batard
  • Electric Piano, Synthesizer, Written-By, Directed By [Orchestra] – Saint-Preux
  • Guitar – Patrice Tison
  • Piano, Synthesizer, Harpsichord – Dominique Perrier
  • Synthesizer – Georges Rodi
  • Trumpet – Michel Barrot
  • Voice – Andre Allet (tracks: 1), Michel Laurent (tracks: 6,10), Saint-Preux (tracks: 7)

1976 — Atlantis:

  • Bass – Bernard Paganotti
  • Drums – Jo Hammer
  • Electric Guitar – Patrice Tison
  • Orchestrated By, Realization – Saint-Preux
  • Percussion – Emmanuel Roche
  • Piano – Saint-Preux
  • Synthesizer – Jean-louis Bucchi, Saint-Preux
  • Vocals – Arthur Simms

Жанр: Neo-Classical, Contemporary, Romantic, Prog Rock
Страна-производитель диска: RU (Unofficial Release)
Год издания диска: 2018
Страна: France
Аудиокодек: FLAC (*.flac)
Тип рипа: tracks+.cue
Битрейт аудио: lossless
Продолжительность: 02:01:16
Источник (релизер): Sket4er
Наличие сканов в содержимом раздачи: да

Any questions - support@pro-jazz.com.
Есть вопросы - support@pro-jazz.com
17:30
352
Нет комментариев. Ваш будет первым!