Поиск

1976-1977 Rahsaan Roland Kirk - Simmer, Reduce, Garnish & Serve (1995) {Warner 9362-45811-2} [WEB]

1976-1977 Rahsaan Roland Kirk - Simmer, Reduce, Garnish & Serve (1995) {Warner 9362-45811-2} [WEB]
Дата записи диска:
1976-1977
Дата издания диска:
25 апреля 1995
Издатель (лейбл):
Номер по каталогу:
9362-45811-2
Носитель:
WEB
Тип рипа:
tracks+.cue
Аудиокодек:
FLAC (*.flac)
Битрейт аудио:
lossless
Время звучания:
01:13:02
Наличие сканов:
нет
Релизёр (источник):
M0p94ok
Лог создания рипа
Exact Audio Copy V1.0 beta 6 from 9. April 2015

EAC extraction logfile from 10. January 2018, 13:46

Rahsaan Roland Kirk / Simmer, Reduce, Garnish & Serve: The Warner Bros. Recordings

Used drive : TSSTcorpDVD+-RW TS-L633C Adapter: 1 ID: 0

Read mode : Secure
Utilize accurate stream : Yes
Defeat audio cache : Yes
Make use of C2 pointers : No

Read offset correction : 6
Overread into Lead-In and Lead-Out : No
Fill up missing offset samples with silence : Yes
Delete leading and trailing silent blocks : No
Null samples used in CRC calculations : Yes
Used interface : Native Win32 interface for Win NT & 2000
Gap handling : Appended to previous track

Used output format : Internal WAV Routines
Sample format : 44.100 Hz; 16 Bit; Stereo


TOC of the extracted CD

Track | Start | Length | Start sector | End sector 
––––––––––––––––––––––––––––-
1 | 0:00.00 | 5:24.17 | 0 | 24316 
2 | 5:24.17 | 9:44.28 | 24317 | 68144 
3 | 15:08.45 | 4:45.57 | 68145 | 89576 
4 | 19:54.27 | 6:08.45 | 89577 | 117221 
5 | 26:02.72 | 0:27.35 | 117222 | 119281 
6 | 26:30.32 | 3:37.13 | 119282 | 135569 
7 | 30:07.45 | 2:15.45 | 135570 | 145739 
8 | 32:23.15 | 7:32.30 | 145740 | 179669 
9 | 39:55.45 | 0:24.20 | 179670 | 181489 
10 | 40:19.65 | 1:49.50 | 181490 | 189714 
11 | 42:09.40 | 5:09.37 | 189715 | 212926 
12 | 47:19.02 | 6:16.25 | 212927 | 241151 
13 | 53:35.27 | 7:12.03 | 241152 | 273554 
14 | 60:47.30 | 6:35.35 | 273555 | 303214 
15 | 67:22.65 | 1:40.20 | 303215 | 310734 
16 | 69:03.10 | 4:10.07 | 310735 | 329491 


Track 1

Filename C:\My Documents\My FLAC\Rahsaan Roland Kirk - Simmer, Reduce, Garnish & Serve, The Warner Bros. Recordings (1995) [FLAC] {Warner Archives}\01 - Lunatic Danza.wav

Pre-gap length 0:00:02.00

Peak level 95.2 %
Extraction speed 1.3 X
Track quality 100.0 %
Test CRC B742785E
Copy CRC B742785E
Accurately ripped (confidence 7) [B59B6FBE] (AR v2)
Copy OK

Track 2

Filename C:\My Documents\My FLAC\Rahsaan Roland Kirk - Simmer, Reduce, Garnish & Serve, The Warner Bros. Recordings (1995) [FLAC] {Warner Archives}\02 - Theme For The Eulipions.wav

Peak level 94.4 %
Extraction speed 1.6 X
Track quality 100.0 %
Test CRC 70E0D19F
Copy CRC 70E0D19F
Accurately ripped (confidence 7) [3F3A0D54] (AR v2)
Copy OK

Track 3

Filename C:\My Documents\My FLAC\Rahsaan Roland Kirk - Simmer, Reduce, Garnish & Serve, The Warner Bros. Recordings (1995) [FLAC] {Warner Archives}\03 - Sweet Georgia Brown.wav

Peak level 82.4 %
Extraction speed 1.6 X
Track quality 100.0 %
Test CRC C01D226F
Copy CRC C01D226F
Accurately ripped (confidence 7) [674A709F] (AR v2)
Copy OK

Track 4

Filename C:\My Documents\My FLAC\Rahsaan Roland Kirk - Simmer, Reduce, Garnish & Serve, The Warner Bros. Recordings (1995) [FLAC] {Warner Archives}\04 - I'll Be Seeing You.wav

Pre-gap length 0:00:00.01

Peak level 94.1 %
Extraction speed 0.7 X
Track quality 100.0 %
Test CRC ECA8B94B
Copy CRC ECA8B94B
Accurately ripped (confidence 7) [E6A2FAC3] (AR v2)
Copy OK

Track 5

Filename C:\My Documents\My FLAC\Rahsaan Roland Kirk - Simmer, Reduce, Garnish & Serve, The Warner Bros. Recordings (1995) [FLAC] {Warner Archives}\05 - Los Angeles Negro Chorus.wav

Peak level 69.6 %
Extraction speed 0.8 X
Track quality 100.0 %
Test CRC 791535DA
Copy CRC 791535DA
Accurately ripped (confidence 7) [93452B47] (AR v2)
Copy OK

Track 6

Filename C:\My Documents\My FLAC\Rahsaan Roland Kirk - Simmer, Reduce, Garnish & Serve, The Warner Bros. Recordings (1995) [FLAC] {Warner Archives}\06 - Serenade To A Cuckoo.wav

Peak level 92.7 %
Extraction speed 1.8 X
Track quality 100.0 %
Test CRC 69FE9129
Copy CRC 69FE9129
Accurately ripped (confidence 7) [183DF9BA] (AR v2)
Copy OK

Track 7

Filename C:\My Documents\My FLAC\Rahsaan Roland Kirk - Simmer, Reduce, Garnish & Serve, The Warner Bros. Recordings (1995) [FLAC] {Warner Archives}\07 - Bagpipe Medley.wav

Peak level 92.4 %
Extraction speed 1.7 X
Track quality 100.0 %
Test CRC 22A3776C
Copy CRC 22A3776C
Accurately ripped (confidence 7) [D7BA11CF] (AR v2)
Copy OK

Track 8

Filename C:\My Documents\My FLAC\Rahsaan Roland Kirk - Simmer, Reduce, Garnish & Serve, The Warner Bros. Recordings (1995) [FLAC] {Warner Archives}\08 - J. Griff's Blues.wav

Peak level 83.4 %
Extraction speed 2.1 X
Track quality 100.0 %
Test CRC 2AD2DCF5
Copy CRC 2AD2DCF5
Accurately ripped (confidence 7) [ECFE8E78] (AR v2)
Copy OK

Track 9

Filename C:\My Documents\My FLAC\Rahsaan Roland Kirk - Simmer, Reduce, Garnish & Serve, The Warner Bros. Recordings (1995) [FLAC] {Warner Archives}\09 - Mary McLeod Berthune.wav

Peak level 34.8 %
Extraction speed 0.9 X
Track quality 100.0 %
Test CRC 5A54B4CE
Copy CRC 5A54B4CE
Accurately ripped (confidence 7) [743169DB] (AR v2)
Copy OK

Track 10

Filename C:\My Documents\My FLAC\Rahsaan Roland Kirk - Simmer, Reduce, Garnish & Serve, The Warner Bros. Recordings (1995) [FLAC] {Warner Archives}\10 - I Loves You Porgy.wav

Peak level 70.2 %
Extraction speed 1.8 X
Track quality 100.0 %
Test CRC E9DF7645
Copy CRC E9DF7645
Accurately ripped (confidence 7) [BE884E63] (AR v2)
Copy OK

Track 11

Filename C:\My Documents\My FLAC\Rahsaan Roland Kirk - Simmer, Reduce, Garnish & Serve, The Warner Bros. Recordings (1995) [FLAC] {Warner Archives}\11 - Hey Babebips.wav

Peak level 81.2 %
Extraction speed 2.2 X
Track quality 100.0 %
Test CRC F935E18D
Copy CRC F935E18D
Accurately ripped (confidence 7) [189CC6A1] (AR v2)
Copy OK

Track 12

Filename C:\My Documents\My FLAC\Rahsaan Roland Kirk - Simmer, Reduce, Garnish & Serve, The Warner Bros. Recordings (1995) [FLAC] {Warner Archives}\12 - In A Mellow Tone.wav

Peak level 75.2 %
Extraction speed 2.4 X
Track quality 100.0 %
Test CRC 8485EA4B
Copy CRC 8485EA4B
Accurately ripped (confidence 7) [652F96F5] (AR v2)
Copy OK

Track 13

Filename C:\My Documents\My FLAC\Rahsaan Roland Kirk - Simmer, Reduce, Garnish & Serve, The Warner Bros. Recordings (1995) [FLAC] {Warner Archives}\13 - Dorthaan's Walk.wav

Peak level 87.0 %
Extraction speed 2.5 X
Track quality 100.0 %
Test CRC 45535EEE
Copy CRC 45535EEE
Accurately ripped (confidence 7) [7135FFCD] (AR v2)
Copy OK

Track 14

Filename C:\My Documents\My FLAC\Rahsaan Roland Kirk - Simmer, Reduce, Garnish & Serve, The Warner Bros. Recordings (1995) [FLAC] {Warner Archives}\14 - Watergate Blues.wav

Peak level 72.9 %
Extraction speed 2.6 X
Track quality 100.0 %
Test CRC 1C63AAB7
Copy CRC 1C63AAB7
Accurately ripped (confidence 7) [710EF328] (AR v2)
Copy OK

Track 15

Filename C:\My Documents\My FLAC\Rahsaan Roland Kirk - Simmer, Reduce, Garnish & Serve, The Warner Bros. Recordings (1995) [FLAC] {Warner Archives}\15 - Summertime.wav

Peak level 69.1 %
Extraction speed 1.6 X
Track quality 99.8 %
Test CRC 2CF18CC0
Copy CRC 2CF18CC0
Accurately ripped (confidence 7) [492468CD] (AR v2)
Copy OK

Track 16

Filename C:\My Documents\My FLAC\Rahsaan Roland Kirk - Simmer, Reduce, Garnish & Serve, The Warner Bros. Recordings (1995) [FLAC] {Warner Archives}\16 - Thunder And Lightning Goodbye.wav

Peak level 100.0 %
Extraction speed 2.6 X
Track quality 100.0 %
Test CRC 468BAD96
Copy CRC 468BAD96
Accurately ripped (confidence 7) [EB1ABD34] (AR v2)
Copy OK


All tracks accurately ripped

No errors occurred

End of status report

–– CUETools DB Plugin V2.1.6

[CTDB TOCID: .6Vekq0polUAdWnAtx.gxVYh3tc-] found
Submit result: .6Vekq0polUAdWnAtx.gxVYh3tc- has been confirmed
Track | CTDB Status
1 | (12/12) Accurately ripped
2 | (12/12) Accurately ripped
3 | (12/12) Accurately ripped
4 | (12/12) Accurately ripped
5 | (12/12) Accurately ripped
6 | (12/12) Accurately ripped
7 | (12/12) Accurately ripped
8 | (12/12) Accurately ripped
9 | (12/12) Accurately ripped
10 | (12/12) Accurately ripped
11 | (12/12) Accurately ripped
12 | (12/12) Accurately ripped
13 | (12/12) Accurately ripped
14 | (12/12) Accurately ripped
15 | (12/12) Accurately ripped
16 | (12/12) Accurately ripped


==== Log checksum 44F7189C807D61714AC7A00CA3314D88CFA4BB8D03DAA9B09412C17F4675F949 ====
Лог проверки качества
CUE Corrector v. 8.3.5 / b. 913 (Apr. 22, 2019)
————————————————————————————————————————————————————————————————————————
Rahsaan Roland Kirk / Simmer, Reduce, Garnish & Serve

Folder: 1995 Rahsaan Roland Kirk - Simmer, Reduce, Garnish & Serve {Warner Bros.}
Audio files:
    01. Rahsaan Roland Kirk - Lunatic Danza.flac [05:24.227; FLAC • 822 kbps • 16 bit \ 44100 Hz • stereo; 31.78 MB (33 318 695 B)]
    02. Rahsaan Roland Kirk - Theme for the Eulipions.flac [09:30.347; FLAC • 820 kbps • 16 bit \ 44100 Hz • stereo; 55.76 MB (58 472 693 B)]
    03. Rahsaan Roland Kirk - Sweet Georgia Brown.flac [05:01.173; FLAC • 873 kbps • 16 bit \ 44100 Hz • stereo; 31.36 MB (32 882 117 B)]
    04. Rahsaan Roland Kirk - I'll Be Seeing You.flac [06:22.213; FLAC • 790 kbps • 16 bit \ 44100 Hz • stereo; 36.00 MB (37 753 451 B)]
    05. Rahsaan Roland Kirk - Los Angeles Negro Chorus.flac [00:26.787; FLAC • 672 kbps • 16 bit \ 44100 Hz • stereo; 2.15 MB (2 251 193 B)]
    06. Rahsaan Roland Kirk - Serenade to a Cuckoo.flac [03:37.720; FLAC • 834 kbps • 16 bit \ 44100 Hz • stereo; 21.66 MB (22 711 358 B)]
    07. Rahsaan Roland Kirk - Bagpipe Medley.flac [02:15.093; FLAC • 871 kbps • 16 bit \ 44100 Hz • stereo; 14.03 MB (14 713 679 B)]
    08. Rahsaan Roland Kirk - J. Griff's Blues.flac [07:43.187; FLAC • 858 kbps • 16 bit \ 44100 Hz • stereo; 47.42 MB (49 720 078 B)]
    09. Rahsaan Roland Kirk - Mary Mcleod Bethune.flac [00:23.387; FLAC • 662 kbps • 16 bit \ 44100 Hz • stereo; 1.85 MB (1 936 778 B)]
    10. Rahsaan Roland Kirk - I Loves You Porgy.flac [01:49.880; FLAC • 617 kbps • 16 bit \ 44100 Hz • stereo; 8.09 MB (8 485 369 B)]
    11. Rahsaan Roland Kirk - Hey Babebips.flac [05:08.427; FLAC • 682 kbps • 16 bit \ 44100 Hz • stereo; 25.11 MB (26 330 843 B)]
    12. Rahsaan Roland Kirk - In a Mellow Tone.flac [06:17.613; FLAC • 763 kbps • 16 bit \ 44100 Hz • stereo; 34.36 MB (36 030 218 B)]
    13. Rahsaan Roland Kirk - Dorthaan's Walk.flac [07:13.840; FLAC • 788 kbps • 16 bit \ 44100 Hz • stereo; 40.76 MB (42 745 138 B)]
    14. Rahsaan Roland Kirk - Watergate Blues.flac [06:34.467; FLAC • 820 kbps • 16 bit \ 44100 Hz • stereo; 38.59 MB (40 461 539 B)]
    15. Rahsaan Roland Kirk - Summertime.flac [01:41.293; FLAC • 668 kbps • 16 bit \ 44100 Hz • stereo; 8.08 MB (8 467 930 B)]
    16. Rahsaan Roland Kirk - Thunder and Lighting Goodbye.flac [04:10.093; FLAC • 720 kbps • 16 bit \ 44100 Hz • stereo; 21.48 MB (22 527 168 B)]

Accuracy: -m0

File 01. Rahsaan Roland Kirk - Lunatic Danza                -  43% CDDA [05:24:17]
File 02. Rahsaan Roland Kirk - Theme for the Eulipions      - 100% CDDA [09:30:26]
File 03. Rahsaan Roland Kirk - Sweet Georgia Brown          - 100% CDDA [05:01:13]
File 04. Rahsaan Roland Kirk - I'll Be Seeing You           - 100% CDDA [06:22:16]
File 05. Rahsaan Roland Kirk - Los Angeles Negro Chorus     - 100% CDDA [00:26:59]
File 06. Rahsaan Roland Kirk - Serenade to a Cuckoo         - 100% CDDA [03:37:54]
File 07. Rahsaan Roland Kirk - Bagpipe Medley               - 100% CDDA [02:15:07]
File 08. Rahsaan Roland Kirk - J. Griff's Blues             - 100% CDDA [07:43:14]
File 09. Rahsaan Roland Kirk - Mary Mcleod Bethune          - 100% CDDA [00:23:29]
File 10. Rahsaan Roland Kirk - I Loves You Porgy            - 100% CDDA [01:49:66]
File 11. Rahsaan Roland Kirk - Hey Babebips                 -  99% CDDA [05:08:32]
File 12. Rahsaan Roland Kirk - In a Mellow Tone             - 100% CDDA [06:17:46]
File 13. Rahsaan Roland Kirk - Dorthaan's Walk              - 100% CDDA [07:13:63]
File 14. Rahsaan Roland Kirk - Watergate Blues              - 100% CDDA [06:34:35]
File 15. Rahsaan Roland Kirk - Summertime                   - 100% CDDA [01:41:22]
File 16. Rahsaan Roland Kirk - Thunder and Lighting Goodbye - 100% CDDA [04:10:07]
————— Summary: —————
These tracks looks like CDDA with probability 100%.
————————————————————————————————————————————————————————————————————————

ANALYZER:
    auCDtect: CD records authenticity detector, version 0.8.2
    Copyright (c) 2004 Oleg Berngardt. All rights reserved.
    Copyright (c) 2004 Alexander Djourik. All rights reserved.

Time elapsed: 10 m 57 s
Log created at May 21, 2019 00:40:17

=== 587CAE96FA2795ABEF45026C1BD9429CEB905E5C44E78EE236839C0081251064 ===
No seeders - write personal message to M0p94ok. Any questions - support@pro-jazz.com.
Нет сидеров - пишите в личку M0p94ok. Есть вопросы - support@pro-jazz.com
03:02
349
Нет комментариев. Ваш будет первым!