Поиск

1975 Noah Howard - Live In Europe, Vol . 1 {Sconsolato ‎SCO001} [24-96]

1975 Noah Howard - Live In Europe, Vol . 1 {Sconsolato ‎SCO001} [24-96]
Битрейт аудио:
lossless
Треклист:

01. Creole Girl
02. New Arrival
03. Lift Every Voice And Sing
04. Olé
05. Kanpai

Доп. инфо:

Формат записи/Источник записи: [TR24][OF]
Наличие водяных знаков: Нет
Издание: Reissue
Год издания/переиздания диска: 1975/2020
Издатель (лейбл): Sconsolato ‎– SCO001
Продолжительность: 00:42:22
Наличие сканов в содержимом раздачи: Только обложка альбома
Контейнер: FLAC (*.flac)
Тип рипа: tracks
Разрядность: 24/96
Формат: PCM
Количество каналов: 2.0

Лог проверки качества
foobar2000 1.4.5 / Замер динамического диапазона (DR) 1.1.1
Дата отчёта:  2020-05-17 01:23:14

--------------------------------------------------------------------------------
Анализ:   Noah Howard / Live In Europe Vol.1
--------------------------------------------------------------------------------

DR         Пики         RMS           Продолжительность трека
--------------------------------------------------------------------------------
DR16      -0.90 дБ   -21.25 дБ     11:02 1-Creole Girl
DR13      -3.94 дБ   -21.02 дБ      6:06 2-New Arrival
DR15      -4.52 дБ   -24.36 дБ      4:18 3-Lift Every Voice And Sing
DR11      -3.47 дБ   -16.64 дБ     12:04 4-Olé
DR16       0.00 дБ   -20.32 дБ      8:51 5-Kanpai
--------------------------------------------------------------------------------

Количество треков: 5
Реальные значения DR: DR14

Частота:   96000 Гц
Каналов:   2
Разрядность:   24
Битрейт:   2657 кбит/с
Кодек:   FLAC
================================================================================
Приватный:
Нет (DHT включён)
Размер:
801.80 Мб (840,746,576 байт) » файлов: 7
Участники:
0 раздают, 1 качают (1 участников всего)
Внешние участники:
8 раздают, 2 качают (10 участников всего) [ Обновить ]
Скорость:
0/c 6.60 Кб/c
No seeders - write a personal message to user M0p94ok. Нет сидеров - пишите личное сообщение пользователю M0p94ok.
12:20
18
Нет комментариев. Ваш будет первым!