Вы используете незарегистрированную версию компонента "Вкладки"!

Поиск

1975 Buddy Tate - Body And Soul (2018) {2xHD} [DSD64]

1975 Buddy Tate - Body And Soul (2018) {2xHD} [DSD64]
Издатель (лейбл):
Доп. инфо:

Формат записи/Источник записи: [DSD][OF]
Наличие водяных знаков: Нет
Год издания/переиздания диска: 1975/2018
Продолжительность: 00:44:53
Наличие сканов в содержимом раздачи: Буклет PDF

Контейнер: DSF (*.dsf)
Тип рипа: tracks
Разрядность: 64(2,8 MHz/1 Bit)
Формат: DSD
Количество каналов: 2.0



Recorded at La Fontaine, Copenhagen, September 23, 1975.
https://www.nativedsd.com/albums/2XHDST1114-buddy-tate-body-and-soul

Лог проверки качества
foobar2000 1.4.6 / Dynamic Range Meter 1.1.1
log date: 2019-12-11 18:17:24

--------------------------------------------------------------------------------
Analyzed: Buddy Tate / Body And Soul
--------------------------------------------------------------------------------

DR         Peak         RMS     Duration Track
--------------------------------------------------------------------------------
DR12      -1.02 dB   -16.26 dB      7:12 01-Stompin' At The Savoy
DR12      -1.56 dB   -17.32 dB      8:54 02-Body And Soul
DR11      -1.00 dB   -15.94 dB      7:45 03-Buddy's Blues
DR11      -0.68 dB   -15.88 dB     17:30 04-In A Mellow Tone
DR11      -2.23 dB   -17.76 dB      3:32 05-I Surrender Dear
--------------------------------------------------------------------------------

Number of tracks:  5
Official DR value: DR11

Samplerate:        2822400 Hz / PCM Samplerate: 176400 Hz
Channels:          2
Bits per sample:   1
Bitrate:           5645 kbps
Codec:             DSD64
================================================================================
Any questions - support@pro-jazz.com. Есть вопросы - support@pro-jazz.com
15:12
300
Нет комментариев. Ваш будет первым!