Поиск

1974 Earl Hines - The Blues (2018) {2xHD} [24-96]

1974 Earl Hines - The Blues (2018) {2xHD} [24-96]
Стили:
Издатель (лейбл):
Битрейт аудио:
lossless
Треклист:

01 - Cotton Club Parade: Ive Got the World on a String 07:02
02 - The Wizard of Oz: Over the Rainbow 08:23
03 - Between the Devil and the Deep Blue Sea 04:34
04 - St. Louis Woman: Come Rain or Come Shine 06:46
05 - The Skys the Limit: My Shining Hour 11:46
06 - Cotton Club Parade: As Long as I Live 06:01

Состав:
Доп. инфо:

Формат записи/Источник записи: [TR24][OF]
Издание: Remastered
Год издания/переиздания диска: 1974/2018
Жанр: Jazz
Издатель (лейбл): 2xHD
Продолжительность: 00:44:32
Наличие сканов в содержимом раздачи: Буклет PDF

Контейнер: FLAC (*.flac)
Тип рипа: tracks
Разрядность: 24/96
Количество каналов: 2.0

Источник (релизер): Presto Jazz

Лог проверки качества
foobar2000 1.4.3 / Dynamic Range Meter 1.1.1
log date: 2020-06-14 16:05:30

--------------------------------------------------------------------------------
Analyzed: Earl Hines / The Blues
--------------------------------------------------------------------------------

DR         Peak         RMS     Duration Track
--------------------------------------------------------------------------------
DR13      -1.47 dB   -19.11 dB      7:03 01-Cotton Club Parade: I've Got the World on a String
DR14      -3.46 dB   -21.71 dB      8:23 02-The Wizard of Oz: Over the Rainbow
DR15      -3.26 dB   -20.75 dB      4:35 03-Between the Devil and the Deep Blue Sea
DR13      -3.51 dB   -19.55 dB      6:46 04-St. Louis Woman: Come Rain or Come Shine
DR13      -4.00 dB   -19.78 dB     11:47 05-The Sky's the Limit: My Shining Hour
DR14      -5.67 dB   -22.60 dB      6:02 06-Cotton Club Parade: As Long as I Live
--------------------------------------------------------------------------------

Number of tracks:  6
Official DR value: DR14

Samplerate:        88200 Hz
Channels:          2
Bits per sample:   24
Bitrate:           2315 kbps
Codec:             FLAC
================================================================================
По всем вопросам пишите личное сообщение пользователю M0p94ok.
15:03
468
Нет комментариев. Ваш будет первым!