Поиск

1974 Bob James - One (2021) {evosound} [24-192]

1974 Bob James - One (2021) {evosound} [24-192]
Место записи:
Van Gelder Studios, Englewood Cliffs, NJ, USA
Носитель:
WEB
Формат:
PCM
Тип рипа:
tracks
Контейнер:
FLAC (*.flac)
Количество каналов:
2.0
Разрядность/ЧД:
24/192
Битрейт аудио:
lossless
Время звучания:
00:34:05
Наличие сканов:
только обложка

01 - Valley Of The Shadows 09:41
02 - In The Garden 03:08
03 - Soulero 03:38
04 - Night On Bald Mountain 05:52
05 - Feel Like Making Love 06:39
06 - Nautilus 05:07

Состав:
  • Bob James, keyboards, arrangements and conductor
  • Richie Resnicoff, guitar
  • Eric Weissberg, pedal steel guitar (2)
  • Gary King, bass
  • Steve Gadd, drums (tracks 1-4)
  • Idris Muhammad, drums (tracks 5, 6)
  • Ralph MacDonald, percussion
  • David Friedman, vibraphone
  • Grover Washington Jr., soprano saxophone (tracks 1, 3)
  • Hugh McCracken, harmonica (track 2)
  • George Marge, alto flute, recorder
  • Romeo Penque, alto flute, recorder
  • Wayne Andre, trombone
  • Paul Faulise, bass trombone
  • Jack Gale, bass trombone
  • Alan Raph, bass trombone
  • Jon Faddis, trumpet, flugelhorn
  • Thad Jones, trumpet, flugelhorn
  • Victor Paz, trumpet
  • Alan Rubin, trumpet
  • Lew Soloff, trumpet
  • Marvin Stamm, trumpet
  • Creed Taylor Producer
  • Rudy Van Gelder Engineer
  • Stew Romain Engineer, Mastering
Лог проверки качества
foobar2000 1.4.3 / Dynamic Range Meter 1.1.1
log date: 2021-07-17 20:35:19
--------------------------------------------------------------------------------
Analyzed: Bob James / One (2021 Remastered)
--------------------------------------------------------------------------------
DR         Peak         RMS     Duration Track
--------------------------------------------------------------------------------
DR12      -0.29 dB   -14.58 dB      9:41 01-Valley Of The Shadows - 2021 Remastered
DR13      -1.69 dB   -18.26 dB      3:09 02-In The Garden - 2021 Remastered
DR12      -2.10 dB   -17.32 dB      3:39 03-Soulero - 2021 Remastered
DR13      -0.81 dB   -15.67 dB      5:53 04-Night On Bald Mountain - 2021 Remastered
DR13      -2.06 dB   -16.99 dB      6:39 05-Feel Like Making Love - 2021 Remastered
DR12      -1.42 dB   -16.56 dB      5:07 06-Nautilus - 2021 Remastered
--------------------------------------------------------------------------------
Number of tracks:  6
Official DR value: DR12
Samplerate:        192000 Hz
Channels:          2
Bits per sample:   24
Bitrate:           5734 kbps
Codec:             FLAC
================================================================================
Приватный:
Нет (DHT включён)
Размер:
1.34 Гб (1,436,670,390 байт) » файлов: 12
Участники:
0 раздают, 0 качают (0 участников всего)
Внешние участники:
3 раздают, 1 качают (4 участников всего) [ Обновить ]
18:06
620
Нет комментариев. Ваш будет первым!