Поиск

1973 Marlena Shaw - From The Depths Of My Soul (2016) {Blue Note} [24-192]

1973 Marlena Shaw - From The Depths Of My Soul (2016) {Blue Note} [24-192]
Дата записи диска:
30 мая, 31 мая, 6 июня 1973
Место записи:
A&R Studios, New York City, USA
Издатель (лейбл):
Битрейт аудио:
lossless

01. Prelude/I Know I Love Him  03:11
02. Hum This Song  03:06
03. But For Now  03:47
04. Easy Evil  03:40
05. The Laughter And The Tears  03:02
06. The Feeling's Good  03:52
07. Wildflower  04:05
08. I Just Don't Want To Be Lonely  03:42
09. Waterfall  03:44
10. Say A Good Word  03:04
11. Time For Me To Go  03:17

Состав:
  •     Acoustic Bass – Ron Carter
  •     Arranged By, Conductor – Wade Marcus
  •     Congas – Arthur Jenkins
  •     Drums – Charles Collins, Grady Tate, Herbie Lovelle
  •     Electric Bass [Fender] – Wilbur Bascomb
  •     Engineer [Assisting] – Brad Davis
  •     Engineer [Recording] – Don Hahn
  •     Guitar – Carl Lynch, Cornell Dupree, Gene Bertoncini, Hugh McCracken
  •     Harp – Gene Bianco
  •     Keyboards – Derek Smith
  •     Liner Notes [Original] – Hank Stewart
  •     Mastered By [Original] – Sol Kessler
  •     Percussion – George Devens
  •     Producer – George Butler
  •     Vocals – Marlena Shaw
Лог проверки качества
foobar2000 1.4.3 / Dynamic Range Meter 1.1.1
log date: 2022-01-16 20:13:25
--------------------------------------------------------------------------------
Analyzed: Marlena Shaw / From The Depths Of My Soul
--------------------------------------------------------------------------------
DR         Peak         RMS     Duration Track
--------------------------------------------------------------------------------
DR12      -1.20 dB   -16.38 dB      3:11 01-Prelude/I Know I Love Him
DR9       -1.81 dB   -13.31 dB      3:07 02-Hum This Song
DR10      -1.85 dB   -15.93 dB      3:47 03-But For Now
DR9       -2.06 dB   -13.27 dB      3:40 04-Easy Evil
DR10      -2.60 dB   -15.46 dB      3:02 05-The Laughter And The Tears
DR10      -2.13 dB   -13.96 dB      3:53 06-The Feeling's Good
DR10      -1.85 dB   -14.59 dB      4:05 07-Wildflower
DR10      -1.73 dB   -14.46 dB      3:43 08-I Just Don't Want To Be Lonely
DR10      -1.52 dB   -13.62 dB      3:45 09-Waterfall
DR9       -0.83 dB   -12.17 dB      3:04 10-Say A Good Word
DR10      -1.85 dB   -13.98 dB      3:17 11-Time For Me To Go
--------------------------------------------------------------------------------
Number of tracks:  11
Official DR value: DR10
Samplerate:        192000 Hz
Channels:          2
Bits per sample:   24
Bitrate:           5429 kbps
Codec:             FLAC
================================================================================
Приватный:
Нет (DHT включён)
Размер:
1.47 Гб (1,580,133,900 байт) » файлов: 17
Участники:
1 раздают, 0 качают (1 участников всего)
Внешние участники:
--- [ Обновить ]
16:47
470
Нет комментариев. Ваш будет первым!