Поиск

1973 Leroy Hutson - Love Oh Love (2018) {Acid Jazz} [24-96]

1973 Leroy Hutson - Love Oh Love (2018) {Acid Jazz} [24-96]
Издатель (лейбл):
Треклист:

Формат записи/Источник записи: [TR24][OF]
Наличие водяных знаков: Нет
Год издания/переиздания диска: 1973/2018
Продолжительность: 37:17
Наличие сканов в содержимом раздачи: Только обложка альбома
Контейнер: FLAC (*.flac)
Тип рипа: tracks
Разрядность: 24/44,1; 24-96
Формат: PCM
Количество каналов: 2.0
Источник: qobuz.com

Треклист:
01. So In Love With You (2:58)
02. Love Oh Love (3:05)
03. When You Smile (4:22)
04. Getting It On (Theme For The “Jay Johnson Affair”) (4:01)
05. Time Brings On A Change (4:44)
06. I'll Be There, I'll Still Care (3:09)
07. I'm In Love With You Girl (2:43)
08. As Long As There's Love Around (3:15)
09. So In Love With You (Mono Single Version) (2:59)
10. When You Smile (Mono Single Edit) (3:00)
11. Love Oh Love (Mono Single Version) (3:01)

 
Лог проверки качества
foobar2000 1.3.9 / Dynamic Range Meter 1.1.1
log date: 2018-06-30 02:24:02
--------------------------------------------------------------------------------
Analyzed: Leroy Hutson / Love Oh Love
--------------------------------------------------------------------------------
DR         Peak         RMS     Duration Track
--------------------------------------------------------------------------------
DR11      -1.71 dB   -14.35 dB      2:58 01-So In Love With You
DR12      -1.87 dB   -14.73 dB      3:05 02-Love Oh Love
DR11      -2.92 dB   -15.59 dB      3:00 10-When You Smile (Mono Single Edit)
--------------------------------------------------------------------------------
Number of tracks:  3
Official DR value: DR11
Samplerate:        44100 Hz
Channels:          2
Bits per sample:   24
Bitrate:           1443 kbps
Codec:             FLAC
================================================================================
--------------------------------------------------------------------------------
Analyzed: Leroy Hutson / Love Oh Love
--------------------------------------------------------------------------------
DR         Peak         RMS     Duration Track
--------------------------------------------------------------------------------
DR11      -1.95 dB   -14.94 dB      4:22 03-When You Smile
DR12      -1.89 dB   -15.58 dB      4:01 04-Getting It On (Theme For The “Jay Johnson Affair”)
DR11      -1.78 dB   -15.12 dB      4:44 05-Time Brings On A Change
DR11      -2.34 dB   -15.33 dB      3:09 06-I'll Be There, I'll Still Care
DR11      -1.67 dB   -14.72 dB      2:43 07-I'm In Love With You Girl
DR12      -1.50 dB   -14.67 dB      3:15 08-As Long As There's Love Around
DR11      -1.89 dB   -14.26 dB      2:59 09-So In Love With You (Mono Single Version)
DR11      -1.61 dB   -14.47 dB      3:01 11-Love Oh Love (Mono Single Version)
--------------------------------------------------------------------------------
Number of tracks:  8
Official DR value: DR11
Samplerate:        96000 Hz
Channels:          2
Bits per sample:   24
Bitrate:           2611 kbps
Codec:             FLAC
================================================================================

 

Приватный:
Нет (DHT включён)
Размер:
637.32 Мб (668,275,167 байт) » файлов: 14
Участники:
6 раздают, 0 качают (6 участников всего)
Внешние участники:
2 раздают, 1 качают (3 участников всего) [ Обновить ]
Есть вопросы - пишите личное сообщение пользователю M0p94ok.
18:04
185
Нет комментариев. Ваш будет первым!