Вы используете незарегистрированную версию компонента "Вкладки"!

Поиск

1973 Gene Russell - Talk to My Lady (2020) {Black Jazz} [24-96]

1973 Gene Russell - Talk to My Lady (2020) {Black Jazz} [24-96]
Стили:
Битрейт аудио:
lossless
Доп. инфо:

Формат записи/Источник записи: [TR24][OF]
Издание: Remastered
Год издания/переиздания диска: 1973/2020
Жанр: Jazz
Издатель (лейбл): Black Jazz Records
Продолжительность: 00:35:28
Наличие сканов в содержимом раздачи: Нет

Контейнер: FLAC (*.flac)
Тип рипа: tracks
Разрядность: 24/96
Количество каналов: 2.0

Источник (релизер): Qobuz

Лог проверки качества
foobar2000 1.4.3 / Dynamic Range Meter 1.1.1
log date: 2020-04-26 12:53:13

--------------------------------------------------------------------------------
Analyzed: Gene Russell / Talk to My Lady
--------------------------------------------------------------------------------

DR         Peak         RMS     Duration Track
--------------------------------------------------------------------------------
DR14      -1.23 dB   -17.48 dB      4:54 01-Talk To My Lady
DR13      -1.22 dB   -16.04 dB      3:48 02-Get Down
DR13      -1.22 dB   -17.60 dB      4:15 03-Me And Mrs. Jones
DR12      -2.35 dB   -17.08 dB      3:45 04-For Heaven's Sake
DR12      -2.31 dB   -16.98 dB      4:53 05-You Are The Sunshine Of My Life
DR14      -1.22 dB   -17.68 dB      4:56 06-Blues Suite
DR13      -1.69 dB   -16.64 dB      4:48 07-My Favorite Things
DR15      -1.22 dB   -20.37 dB      4:14 08-If You Could See Me Now
--------------------------------------------------------------------------------

Number of tracks:  8
Official DR value: DR13

Samplerate:        96000 Hz
Channels:          2
Bits per sample:   24
Bitrate:           2210 kbps
Codec:             FLAC
================================================================================
Any questions - support@pro-jazz.com. Есть вопросы - support@pro-jazz.com
10:36
273
Нет комментариев. Ваш будет первым!