Вы используете незарегистрированную версию компонента "Вкладки"!

Поиск

1973 Earl Hines - An Evening with Earl Hines (2003) {Audio Fidelity} [24-96]

1973 Earl Hines - An Evening with Earl Hines (2003) {Audio Fidelity} [24-96]
Стили:
Дата записи диска:
27 октября - 28 октября 1972
Место записи:
Dinkler's Motor Inn, Syracuse, NY
Дата издания диска:
7 января 1973
Дата переиздания диска:
8 апреля 2003
Носитель:
WEB
Формат:
PCM
Тип рипа:
tracks
Контейнер:
FLAC (*.flac)
Количество каналов:
2.0
Разрядность/ЧД:
24/96
Битрейт аудио:
lossless
Наличие сканов:
только обложка
Лог проверки качества
foobar2000 1.6.2 / Dynamic Range Meter 1.1.1
log date: 2021-10-07 08:11:31

--------------------------------------------------------------------------------
Analyzed: Earl Hines / An Evening with Earl Hines
--------------------------------------------------------------------------------

DR         Peak         RMS     Duration Track
--------------------------------------------------------------------------------
DR13      -1.21 dB   -18.15 dB      6:44 01-Perdido
DR11      -1.21 dB   -14.52 dB      6:54 02-Boogie Woogie on the St. Louis Blues
DR16      -2.54 dB   -23.43 dB      4:20 03-I Got It Bad and That Ain't Good
DR12      -1.21 dB   -17.45 dB      7:06 04-All of Me
DR12      -1.21 dB   -16.16 dB      5:24 05-Things Ain't What They Used to Be
DR16      -1.87 dB   -21.43 dB      4:34 06-Lil Darlin'
DR15      -1.23 dB   -20.88 dB      4:15 07-James Street Blues
DR12      -1.22 dB   -19.70 dB      6:38 08-Prelude to a Kiss
DR12      -1.22 dB   -17.86 dB      3:05 09-Prisoner of Love
DR14      -2.66 dB   -22.94 dB      4:24 10-My Ship
DR13      -1.21 dB   -17.62 dB      6:06 11-La Rosita
DR17      -2.56 dB   -26.54 dB      4:55 12-Rainy Day / Polka Dots and Moonbeams
DR13      -1.26 dB   -19.14 dB      5:24 13-Lester Leaps In
DR15      -3.09 dB   -22.41 dB      4:52 14-Who
DR15      -1.22 dB   -20.00 dB      6:54 15-I Ain't Got Nobody
DR14      -1.24 dB   -18.85 dB     10:13 16-Marie
DR13      -1.45 dB   -17.94 dB      5:04 17-Dinkler Boogie
DR12      -1.49 dB   -20.07 dB      4:42 18-I Wish You Love
--------------------------------------------------------------------------------

Number of tracks:  18
Official DR value: DR14

Samplerate:        96000 Hz
Channels:          2
Bits per sample:   24
Bitrate:           2198 kbps
Codec:             FLAC
================================================================================
Any questions - support@pro-jazz.com. Есть вопросы - support@pro-jazz.com
08:17
41
Нет комментариев. Ваш будет первым!