Поиск

1973 Donald Byrd, The Blackbyrds ‎– Live At The Jazz Workshop, Boston September 4th 1973 (2014) {Echoes ECHO 2008CD} [WEB]

1973 Donald Byrd, The Blackbyrds ‎– Live At The Jazz Workshop, Boston September 4th 1973 (2014) {Echoes ECHO 2008CD} [WEB]
Дата записи диска:
4 сентября 1973
Дата издания диска:
5 декабря 2014
Номер по каталогу:
ECHO 2008CD
Носитель:
WEB
Тип рипа:
tracks+.cue
Аудиокодек:
FLAC (*.flac)
Битрейт аудио:
lossless
Время звучания:
01:12:20
Наличие сканов:
web
Страна-производитель диска (релиза):
Cyprus
Треклист:

1    Kwame    27:55
2    Fancy Free    16:43
3    The Good Reverend    17:22
4    Flight Time    10:20

Содержание индексной карты (.CUE)
REM GENRE Jazz
REM DATE 04-09-1973
PERFORMER "Donald Byrd"
TITLE "Live at The Jazz Workshop, Boston September 4th 1973 - Complete Live FM Radio Broadcast. Superb Fidelity (Remastered)"
FILE "1. Donald Byrd - Kwame (Remastered Live Version).flac" WAVE
  TRACK 01 AUDIO
    TITLE "Kwame (Remastered Live Version)"
    PERFORMER "Donald Byrd;The Blackbyrds"
    ISRC DELJ81481978
    INDEX 01 00:00:00
FILE "2. Donald Byrd - Fancy Free (Remastered Live Version).flac" WAVE
  TRACK 02 AUDIO
    TITLE "Fancy Free (Remastered Live Version)"
    PERFORMER "Donald Byrd;The Blackbyrds"
    ISRC DELJ81481979
    INDEX 01 00:00:00
FILE "3. Donald Byrd - The Good Reverend (Remastered Live Version).flac" WAVE
  TRACK 03 AUDIO
    TITLE "The Good Reverend (Remastered Live Version)"
    PERFORMER "Donald Byrd;The Blackbyrds"
    ISRC DELJ81481980
    INDEX 01 00:00:00
FILE "4. Donald Byrd - Flight Time (Remastered Live Version).flac" WAVE
  TRACK 04 AUDIO
    TITLE "Flight Time (Remastered Live Version)"
    PERFORMER "Donald Byrd;The Blackbyrds"
    ISRC DELJ81481981
    INDEX 01 00:00:00
Лог проверки качества
CUE Corrector v. 8.3.5 / b. 913 (Apr. 22, 2019)
————————————————————————————————————————————————————————————————————————
Donald Byrd / Live at The Jazz Workshop, Boston September 4th 1973 - Complete Live FM Radio Broadcast. Superb Fidelity (Remastered)

CUE file: Live at The Jazz Workshop.cue
Audio files:
    1. Donald Byrd - Kwame (Remastered Live Version).flac [27:55.160; FLAC • 799 kbps • 16 bit \ 44100 Hz • stereo; 159.74 MB (167 499 160 B)]
    2. Donald Byrd - Fancy Free (Remastered Live Version).flac [16:43.947; FLAC • 797 kbps • 16 bit \ 44100 Hz • stereo; 95.49 MB (100 127 286 B)]
    3. Donald Byrd - The Good Reverend (Remastered Live Version).flac [17:22.253; FLAC • 785 kbps • 16 bit \ 44100 Hz • stereo; 97.56 MB (102 302 803 B)]
    4. Donald Byrd - Flight Time (Remastered Live Version).flac [10:20.520; FLAC • 800 kbps • 16 bit \ 44100 Hz • stereo; 59.24 MB (62 119 361 B)]

Accuracy: -m0

Track 01 - Kwame (Remastered Live Version) (Donald Byrd;The Blackbyrds)             - 100% CDDA [27:55:12]
Track 02 - Fancy Free (Remastered Live Version) (Donald Byrd;The Blackbyrds)        - 100% CDDA [16:43:71]
Track 03 - The Good Reverend (Remastered Live Version) (Donald Byrd;The Blackbyrds) - 100% CDDA [17:22:19]
Track 04 - Flight Time (Remastered Live Version) (Donald Byrd;The Blackbyrds)       - 100% CDDA [10:20:39]
————— Summary: —————
These tracks looks like CDDA with probability 100%.
————————————————————————————————————————————————————————————————————————

ANALYZER:
    auCDtect: CD records authenticity detector, version 0.8.2
    Copyright (c) 2004 Oleg Berngardt. All rights reserved.
    Copyright (c) 2004 Alexander Djourik. All rights reserved.

Time elapsed: 4 m 41 s
Log created at May 09, 2019 00:37:32

=== B58A3F2EB253FCEFEC0EDD7CE63829A5774F5DFD88C1161FCC5CE14E95D3F0D5 ===
Приватный:
Нет (DHT включён)
Размер:
414.85 Мб (435,000,709 байт) » файлов: 11
Участники:
19 раздают, 0 качают (19 участников всего)
Внешние участники:
--- [ Обновить ]
For power users only: no seeders - write to support@pro-jazz.com. Для power user: нет сидеров - пишите на support@pro-jazz.com.
00:54
151
Нет комментариев. Ваш будет первым!