Вы используете незарегистрированную версию компонента "Вкладки"!

Поиск

1973 Ben Webster - Gentle Ben with Tete Montoliu Trio (2018) {2xHD} [24-192]

1973 Ben Webster - Gentle Ben with Tete Montoliu Trio (2018) {2xHD} [24-192]
Доп. инфо:

Формат записи/Источник записи: [TR24][OF]
Издание: Remastered
Год издания/переиздания диска: 1973/2018
Издатель (лейбл): 2xHD
Продолжительность: 00:56:11
Наличие сканов в содержимом раздачи: Буклет PDF

Контейнер: FLAC (*.flac)
Тип рипа: tracks
Разрядность: 24/192
Количество каналов: 2.0

Источник (релизер): PROSTUDIOMASTERS

Лог проверки качества
foobar2000 1.4.3 / Dynamic Range Meter 1.1.1
log date: 2019-12-14 16:54:27

--------------------------------------------------------------------------------
Analyzed: Ben Webster & Tete Montoliu Trio / Gentle Ben (Remastered)
--------------------------------------------------------------------------------

DR         Peak         RMS     Duration Track
--------------------------------------------------------------------------------
DR14      -1.08 dB   -21.33 dB      9:03 01-Ben's Blues
DR14      -5.39 dB   -24.99 dB      5:36 02-The Man I Love
DR15      -3.27 dB   -23.84 dB      5:23 03-My Nephew Bent
DR14      -5.41 dB   -24.20 dB      8:04 04-How Long Has This Been Going On?
DR16      -2.35 dB   -23.44 dB      6:31 05-Sweet Georgia Brown
DR16      -2.66 dB   -23.30 dB      8:02 06-Don't Blame Me
DR15      -3.89 dB   -24.41 dB      8:41 07-Did You Call?
DR14      -1.56 dB   -21.00 dB      4:40 08-Barcelona Shout
--------------------------------------------------------------------------------

Number of tracks:  8
Official DR value: DR15

Samplerate:        192000 Hz
Channels:          2
Bits per sample:   24
Bitrate:           4927 kbps
Codec:             FLAC
================================================================================
Any questions - support@pro-jazz.com. Есть вопросы - support@pro-jazz.com
22:07
235
Нет комментариев. Ваш будет первым!