Вы используете незарегистрированную версию компонента "Вкладки"!

Поиск

1972 Sonny Thompson - Swings in Paris (2019) {Solid, Black & Blue CDSOL-46049} [CD]

1972 Sonny Thompson - Swings in Paris (2019) {Solid, Black & Blue CDSOL-46049} [CD]
Стили:
Дата записи диска:
9 декабря 1972
Место записи:
Studio Barclay, Paris
Издатель (лейбл):
Битрейт аудио:
lossless
Доп. инфо:

Носитель: CD
Страна-производитель диска (релиза): Япония
Год издания: 1972 (2019)
Издатель (лейбл): Solid Records/Ultra-Vybe/Black & Blue
Номер по каталогу: CDSOL-46049
Аудиокодек: FLAC (*.flac)
Тип рипа: image+.cue
Продолжительность: 00:41:14
Источник: Squib84
Наличие сканов в содержимом раздачи: да

Лог создания рипа
Exact Audio Copy V1.3 from 2. September 2016

EAC extraction logfile from 17. August 2020, 10:38

Sonny Thompson / Swings In Paris (Japan, 2019)

Used drive  : HL-DT-STDVDRAM GP08NU40   Adapter: 1  ID: 0

Read mode               : Secure
Utilize accurate stream : Yes
Defeat audio cache      : Yes
Make use of C2 pointers : No

Read offset correction                      : 667
Overread into Lead-In and Lead-Out          : No
Fill up missing offset samples with silence : Yes
Delete leading and trailing silent blocks   : No
Null samples used in CRC calculations       : Yes
Used interface                              : Native Win32 interface for Win NT & 2000

Used output format : Internal WAV Routines
Sample format      : 44.100 Hz; 16 Bit; Stereo

TOC of the extracted CD

     Track |   Start  |  Length  | Start sector | End sector
    ---------------------------------------------------------
        1  |  0:00.00 |  5:21.37 |         0    |    24111
        2  |  5:21.37 |  5:22.28 |     24112    |    48289
        3  | 10:43.65 |  4:21.46 |     48290    |    67910
        4  | 15:05.36 |  4:47.30 |     67911    |    89465
        5  | 19:52.66 |  4:29.70 |     89466    |   109710
        6  | 24:22.61 |  5:58.73 |    109711    |   136633
        7  | 30:21.59 |  6:49.67 |    136634    |   167375
        8  | 37:11.51 |  4:01.56 |    167376    |   185506

Range status and errors

Selected range

     Filename C:\Users\Victor\Desktop\Sonny Thompson - Swings In Paris (Japan, 2019).wav

     Peak level 99.6 %
     Extraction speed 4.4 X
     Range quality 99.9 %
     Copy CRC 3DE8C4B3
     Copy OK

No errors occurred

End of status report

---- CUETools DB Plugin V2.1.6

[CTDB TOCID: yIw0Q4M0DLvLF3_5oJf2jv_olsY-] found
Submit result: already submitted
Track | CTDB Status
  1   | (1/1) Accurately ripped
  2   | (1/1) Accurately ripped
  3   | (1/1) Accurately ripped
  4   | (1/1) Accurately ripped
  5   | (1/1) Accurately ripped
  6   | (1/1) Accurately ripped
  7   | (1/1) Accurately ripped
  8   | (1/1) Accurately ripped
Содержание индексной карты (.CUE)
REM GENRE Jazz
REM DATE 1972
REM DISCID 5F09A908
REM COMMENT "ExactAudioCopy v1.3"
PERFORMER "Sonny Thompson"
TITLE "Swings in Paris"
FILE "Sonny Thompson - Swings in Paris.wav" WAVE
  TRACK 01 AUDIO
    TITLE "Sweet Georgia Brown"
    PERFORMER "Sonny Thompson"
    INDEX 01 00:00:00
  TRACK 02 AUDIO
    TITLE "Jumpin' at the Woodside"
    PERFORMER "Sonny Thompson"
    INDEX 00 05:19:37
    INDEX 01 05:21:37
  TRACK 03 AUDIO
    TITLE "Exactly Like You"
    PERFORMER "Sonny Thompson"
    INDEX 00 10:41:65
    INDEX 01 10:43:65
  TRACK 04 AUDIO
    TITLE "When You Are Smiling"
    PERFORMER "Sonny Thompson"
    INDEX 00 15:03:36
    INDEX 01 15:05:36
  TRACK 05 AUDIO
    TITLE "I Am Gonna Sit Right Down and Write Myself a Letter"
    PERFORMER "Sonny Thompson"
    INDEX 00 19:50:66
    INDEX 01 19:52:66
  TRACK 06 AUDIO
    TITLE "Bye Bye Blackbirds"
    PERFORMER "Sonny Thompson"
    INDEX 00 24:20:61
    INDEX 01 24:22:61
  TRACK 07 AUDIO
    TITLE "Moten Swing"
    PERFORMER "Sonny Thompson"
    INDEX 00 30:19:59
    INDEX 01 30:21:59
  TRACK 08 AUDIO
    TITLE "Swinging the Blues"
    PERFORMER "Sonny Thompson"
    INDEX 00 37:09:51
    INDEX 01 37:11:51
Лог проверки качества
[CUETools log; Date: 10.09.2020 23:03:52; Version: 2.1.6]
[CTDB TOCID: yIw0Q4M0DLvLF3_5oJf2jv_olsY-] found.
Track | CTDB Status
  1   | (1/1) Accurately ripped
  2   | (1/1) Accurately ripped
  3   | (1/1) Accurately ripped
  4   | (1/1) Accurately ripped
  5   | (1/1) Accurately ripped
  6   | (1/1) Accurately ripped
  7   | (1/1) Accurately ripped
  8   | (1/1) Accurately ripped
[AccurateRip ID: 000ca64f-00547670-5f09a908] found.
Track   [  CRC   |   V2   ] Status
 01     [f04c8a53|e21d7382] (0+1/1) Accurately ripped
 02     [e2ec029a|1a9571e8] (0+1/1) Accurately ripped
 03     [b688a406|9a2390cc] (0+1/1) Accurately ripped
 04     [8b80677e|e53ed665] (0+1/1) Accurately ripped
 05     [570b161b|5d29046b] (0+1/1) Accurately ripped
 06     [9a6a224e|7620adef] (0+1/1) Accurately ripped
 07     [44fbfe19|9d2c8921] (0+1/1) Accurately ripped
 08     [56d0c862|7bb5f9a5] (0+1/1) Accurately ripped

Track Peak [ CRC32  ] [W/O NULL] [  LOG   ]
 --   99,6 [3DE8C4B3] [07A4806A]   CRC32
 01   94,9 [A099DD83] [57D1BD61]
 02   93,1 [419A576E] [0FB79850]
 03   99,6 [F1A67F8A] [F1CEE1EC]
 04   96,3 [7D970DE5] [E7B98243]
 05   92,5 [EB28E1BD] [935180E6]
 06   94,7 [16568134] [9D25541F]
 07   94,1 [DCA09318] [AC2FFA06]
 08   93,4 [95117922] [23691BD6]
Any questions - support@pro-jazz.com. Есть вопросы - support@pro-jazz.com
17:19
136
Нет комментариев. Ваш будет первым!