Поиск

1972 Roger Webb - Free As Air (2011) {Music De Wolfe DW LP 3229} [WEB]

1972 Roger Webb - Free As Air (2011) {Music De Wolfe DW LP 3229} [WEB]

A1 Freeway
A2 My Lady
A3 Riviera
A4 Blackbird
A5 Incantation
A6 Gentle Unisax
A7 Air For Two
A8 Cellody
B1 Follow On Fast
B2 Dream Boat
B3 Meet Mister Mee
B4 Free As Air
B5 Two Moods For Jackie
B6 Smoke Rings

 
DRM log
foobar2000 1.3.10 / Замер динамического диапазона (DR) 1.1.1
Дата отчёта:  2019-02-07 01:09:50
--------------------------------------------------------------------------------
Анализ:   Roger Webb / Free As Air
--------------------------------------------------------------------------------
DR         Пики         RMS           Продолжительность трека
--------------------------------------------------------------------------------
DR10      -0.39 дБ   -12.62 дБ      2:01 01-Freeway
DR9       -0.52 дБ   -12.54 дБ      3:07 02-My Lady
DR8       -0.50 дБ    -9.80 дБ      3:46 03-Riviera
DR8       -0.52 дБ   -11.51 дБ      1:49 04-Blackbird
DR8       -0.48 дБ   -11.18 дБ      2:59 05-Incantation
DR10      -0.51 дБ   -13.03 дБ      3:45 06-Gentle Unisax
DR8       -0.46 дБ   -11.00 дБ      2:00 07-Air For Two
DR9       -0.50 дБ   -12.11 дБ      3:33 08-Cellody
DR9       -0.34 дБ   -10.08 дБ      2:45 09-Follow On Fast
DR9       -0.50 дБ   -11.62 дБ      2:38 10-Dream Boat
DR8       -0.41 дБ   -11.24 дБ      3:00 11-Meet Mister Mee
DR8       -0.52 дБ   -11.49 дБ      2:39 12-Free As Air
DR11      -0.49 дБ   -15.11 дБ      4:19 13-Two Moods For Jackie
DR11      -0.24 дБ   -13.56 дБ      5:08 14-Smoke Rings
--------------------------------------------------------------------------------
Количество треков: 14
Реальные значения DR: DR9
Частота:   48000 Гц
Каналов:   2
Разрядность:   16
Битрейт:   830 кбит/с
Кодек:   FLAC
================================================================================
Лог проверки качества
-----------------------

DON'T MODIFY THIS FILE

-----------------------

PERFORMER: auCDtect Task Manager, ver. 1.6.0 RC1 build 1.6.0.1
Copyright (c) 2008-2010 y-soft. All rights reserved
http://y-soft.org

ANALYZER: auCDtect: CD records authenticity detector, version 0.8.2
Copyright (c) 2004 Oleg Berngardt. All rights reserved.
Copyright (c) 2004 Alexander Djourik. All rights reserved.

FILE: 14 - Smoke Rings.flac
  Size: 32023099 Hash: 5EADBD1D3B5698A48A05D6B70EF7EB7F Accuracy: -m0
  Conclusion: ???
  Signature: 63D65AAEFEE7574EE31A5588DE874B579A311F28
FILE: 13 - Two Moods For Jackie.flac
  Size: 23140356 Hash: 9988CF102D656F3F235C544E37F407B7 Accuracy: -m0
  Conclusion: CDDA 43%
  Signature: E4C257E852C707DC62DDF8B93F91023E2BD11D22
FILE: 12 - Free As Air.flac
  Size: 16530020 Hash: D7AF81AB415021CA4E5203A4DE2D1D91 Accuracy: -m0
  Conclusion: CDDA 100%
  Signature: 6622B0B6CB72FCB6BC0A604771225FA4DCBAB822
FILE: 11 - Meet Mister Mee.flac
  Size: 18717674 Hash: 40082EE62E65472EF3F47976432FF041 Accuracy: -m0
  Conclusion: CDDA 100%
  Signature: 4EB1B6C1D78FFF42A1F07F2CFA36DE3690F1B603
FILE: 10 - Dream Boat.flac
  Size: 17688963 Hash: 19CBC200063EC2EF267779C264412521 Accuracy: -m0
  Conclusion: CDDA 100%
  Signature: F84AB055BCF114480B9910D4D55F15930663A082
FILE: 09 - Follow On Fast.flac
  Size: 20134083 Hash: F8CE5E017554C6C1B04F9D350F30699F Accuracy: -m0
  Conclusion: CDDA 100%
  Signature: A682B9C11610A438C5D76CAAD47C5F1E0A5DF2D7
FILE: 08 - Cellody.flac
  Size: 21350206 Hash: 4B78A6E92AD35F9285AD7B0F54F625C7 Accuracy: -m0
  Conclusion: CDDA 58%
  Signature: F2D485018C0EA61C115AE5252E6661FCAD18A364
FILE: 07 - Air For Two.flac
  Size: 13429932 Hash: F9CCCCEA5500F4C9B059F321E697038B Accuracy: -m0
  Conclusion: CDDA 49%
  Signature: F0E1C9964C823F83869F9A58648603B6F6AF5A89
FILE: 06 - Gentle Unisax.flac
  Size: 23843140 Hash: 4C46C8B366286E4B0590A47D74C0D246 Accuracy: -m0
  Conclusion: CDDA 76%
  Signature: 1AC54CE94F3DE26918ECB2931D25B04C81C6346C
FILE: 05 - Incantation.flac
  Size: 17519242 Hash: EE1082B1266B04361D96112A467A97C3 Accuracy: -m0
  Conclusion: CDDA 43%
  Signature: 569804D87DEBBFD7E9FF8D24B3E0541833B4278C
FILE: 04 - Blackbird.flac
  Size: 10691454 Hash: CF889BF0EDFB50DE0619837FD96439DD Accuracy: -m0
  Conclusion: CDDA 42%
  Signature: C7B42BEA10FDEBD11D3095E1F9BC40BF573F14B2
FILE: 03 - Riviera.flac
  Size: 24721457 Hash: 9B756C17B849DEF863CEF0C482AC2C71 Accuracy: -m0
  Conclusion: CDDA 100%
  Signature: B4E5182DF350D3866B52EB27C47F695F300B1DAA
FILE: 02 - My Lady.flac
  Size: 18625946 Hash: 28522DE1650E1FEC8AFF9AB1072437DC Accuracy: -m0
  Conclusion: CDDA 76%
  Signature: D23A187A7A5495998F1F69C72CFB9C0B26C53A6B
FILE: 01 - Freeway.flac
  Size: 12704255 Hash: 30382CC0C92C2724B0C77C095C37A421 Accuracy: -m0
  Conclusion: CDDA 100%
  Signature: 8A6000D03F81B07BA0ED69464E03069D47A0768D
Скриншот спектра частот
1972 Roger Webb - Free As Air (2011) {Music De Wolfe DW LP 3229} [WEB] 01972 Roger Webb - Free As Air (2011) {Music De Wolfe DW LP 3229} [WEB] 11972 Roger Webb - Free As Air (2011) {Music De Wolfe DW LP 3229} [WEB] 2
19:28
610
Нет комментариев. Ваш будет первым!