Поиск

1972 Marlena Shaw - Marlena (2014) {CM Blue Note A92} [24-192]

1972 Marlena Shaw - Marlena (2014) {CM Blue Note A92} [24-192]
Дата записи диска:
10 августа - 11 августа 1972
Место записи:
A&R Studios, New York City, USA
Издатель (лейбл):
Носитель:
WEB
Формат:
PCM
Тип рипа:
tracks
Контейнер:
FLAC (*.flac)
Количество каналов:
2.0
Разрядность/ЧД:
24/192
Битрейт аудио:
lossless
Время звучания:
00:40:46
Наличие сканов:
только обложка

Треклист:

01 - What Are You Doing For The Rest Of Your Life 05:07
02 - Somewhere 03:26
03 - Runnin' Out Of Fools 04:47
04 - So Far Away 03:58
05 - I'm Gonna Find Out 03:51
06 - Save The Children 04:07
07 - You Must Believe In Spring 04:33
08 - Wipe Away The Evil 05:01
09 - Things Don't Never Go My Way 05:56

Состав:
  •     Arranged By – Wade Marcus
  •     Bass – Richard Davis (2)
  •     Cello – Charles McCracken, Seymour Barab
  •     Congas – Raymond Orchart
  •     Congas, Bongos – Johnny Pacheco
  •     Drums – Jimmy Johnson (2)
  •     Electric Bass [Fender Bass] – Gordon Edwards
  •     Electric Piano [Fender Rhodes], Piano – Derex Smith*
  •     Engineer – Don Hahn
  •     Flute, Oboe, English Horn – Philip Bodner*
  •     Guitar – Cornell Dupree, Jay Berliner, Vincent Bell*
  •     Harp – Gene Bianco
  •     Organ, Electric Piano [Fender Rhodes], Piano – Paul Griffin
  •     Percussion – Omar Clay
  •     Producer – George Butler
  •     Viola – Julien Barber, Seymour Berman, Theodore Israel
  •     Violin – Harry Lookofsky, Louis Haber, Louis Stone, Paul Gershman, Paul Winter
  •     Violin [Soloist] – Irving Spice
  •     Vocals – Marlena Shaw
Лог проверки качества
foobar2000 1.4.3 / Dynamic Range Meter 1.1.1
log date: 2022-01-15 17:19:22
--------------------------------------------------------------------------------
Analyzed: Marlena Shaw / Marlena (1-8)
          Phil Bodner / Marlena (9)
--------------------------------------------------------------------------------
DR         Peak         RMS     Duration Track
--------------------------------------------------------------------------------
DR10      -1.40 dB   -13.88 dB      5:08 01-What Are You Doing For The Rest Of Your Life
DR9       -1.39 dB   -12.39 dB      3:27 02-Somewhere
DR10      -1.01 dB   -13.46 dB      4:47 03-Runnin' Out Of Fools
DR10      -0.92 dB   -13.86 dB      3:58 04-So Far Away
DR8       -1.36 dB   -12.46 dB      3:52 05-I'm Gonna Find Out
DR9       -1.46 dB   -11.93 dB      4:08 06-Save The Children
DR9       -0.85 dB   -13.17 dB      4:33 07-You Must Believe In Spring
DR9       -0.61 dB   -12.98 dB      5:56 09-Things Don't Never Go My Way
DR9       -1.18 dB   -12.69 dB      5:02 08-Wipe Away The Evil
--------------------------------------------------------------------------------
Number of tracks:  9
Official DR value: DR9
Samplerate:        192000 Hz
Channels:          2
Bits per sample:   24
Bitrate:           5632 kbps
Codec:             FLAC
================================================================================
Download available for power users only.
To become a power user - read FAQ.
15:50
136
Нет комментариев. Ваш будет первым!