Вы используете незарегистрированную версию компонента "Вкладки"!

Поиск

1972 Hank Crawford - We Got a Good Thing Going (2017) {King} [24-192]

1972 Hank Crawford - We Got a Good Thing Going (2017) {King} [24-192]
Место записи:
Van Gelder Studio, Englewood Cliffs, New Jersey
Дата издания диска:
сентября и октября 1972
Издатель (лейбл):
Доп. инфо:

Формат записи/Источник записи: [TR24][OF]
Издание: Remastered
Год издания/переиздания диска: 1972/2017
Жанр: Jazz
Издатель (лейбл): King Record Co
Продолжительность: 00:38:23
Наличие сканов в содержимом раздачи: Нет

Контейнер: FLAC (*.flac)
Тип рипа: tracks
Разрядность: 24/192
Количество каналов: 2.0

Источник (релизер): King Jazz & Classics

Лог проверки качества
foobar2000 1.4.3 / Dynamic Range Meter 1.1.1
log date: 2020-02-18 12:56:50

--------------------------------------------------------------------------------
Analyzed: Hank Crawford / We Got a Good Thing Going
--------------------------------------------------------------------------------

DR         Peak         RMS     Duration Track
--------------------------------------------------------------------------------
DR10      -0.10 dB   -11.77 dB      6:00 01-We Got a Good Thing Going
DR12      -0.10 dB   -15.46 dB      3:11 02-Imagination
DR11      -0.10 dB   -13.65 dB      3:27 03-Down To Earth
DR11      -0.41 dB   -14.92 dB      3:44 04-The Christmas Song
DR13      -0.83 dB   -16.10 dB      3:35 05-Alone Again (Naturally)
DR11      -0.10 dB   -13.19 dB      4:24 06-I Don't Know
DR13      -0.10 dB   -15.73 dB      6:56 07-I'm Just a Lucky So-and-So
DR10      -0.10 dB   -11.64 dB      3:35 08-Winter Wonderland
DR11      -0.10 dB   -14.33 dB      3:35 09-Jazz Bridge
--------------------------------------------------------------------------------

Number of tracks:  9
Official DR value: DR11

Samplerate:        192000 Hz
Channels:          2
Bits per sample:   24
Bitrate:           5675 kbps
Codec:             FLAC
================================================================================
Any questions - support@pro-jazz.com. Есть вопросы - support@pro-jazz.com
15:47
330
Нет комментариев. Ваш будет первым!