Поиск

1971 Leon Spencer - Louisiana Slim (2021) {Craft} [24-192]

1971 Leon Spencer - Louisiana Slim (2021) {Craft} [24-192]
Стили:
Доп. инфо:

• Формат записи | Источник записи: [TR24][OF]
• Наличие водяных знаков: Нет
• Год издания релиза: 1971/2021
• Лейбл: Craft Recordings
• Продолжительность: 00:38:25
• Источник: internet
• WEB релиз: ссылка
• Контейнер: FLAC (*.flac)
• Тип рипа: tracks
• Разрядность: 24/192
• Формат: PCM
• Количество каналов: 2.0
• Наличие сканов: front

Лог проверки качества
foobar2000 1.4.2 / Dynamic Range Meter 1.1.1
log date: 2021-05-22 15:01:40

--------------------------------------------------------------------------------
Analyzed: Leon Spencer / Louisiana Slim
--------------------------------------------------------------------------------

DR         Peak         RMS     Duration Track
--------------------------------------------------------------------------------
DR8       -0.50 dB    -9.62 dB     10:10 01-Louisiana Slim
DR8       -0.50 dB    -9.88 dB      4:05 02-Mercy Mercy Me
DR8       -0.50 dB   -10.03 dB      5:29 03-(They Long To Be) Close To You
DR8       -0.50 dB   -10.45 dB     10:17 04-Our Love Will Never Die
DR9       -0.50 dB   -10.39 dB      8:24 05-The Trouble With Love
--------------------------------------------------------------------------------

Number of tracks:  5
Official DR value: DR8

Samplerate:        192000 Hz
Channels:          2
Bits per sample:   24
Bitrate:           5509 kbps
Codec:             FLAC
================================================================================
No seeders - write personal message to M0p94ok. Any questions - support@pro-jazz.com.
Нет сидеров - пишите в личку M0p94ok. Есть вопросы - support@pro-jazz.com
22:46
24
Нет комментариев. Ваш будет первым!