Поиск

1970 Herbie Hancock, Albert 'Tootie' Heath, Don Cherry - Kawaida (2020) {SRS Digital} [24-96]

1970 Herbie Hancock, Albert 'Tootie' Heath, Don Cherry - Kawaida (2020) {SRS Digital} [24-96]
Дата записи диска:
11 декабря 1969
Место записи:
The Universe
Носитель:
WEB
Формат:
PCM
Тип рипа:
tracks
Контейнер:
FLAC (*.flac)
Количество каналов:
2.0
Разрядность/ЧД:
24/96
Битрейт аудио:
lossless
Время звучания:
00:44:43
Наличие сканов:
только обложка
Треклист:

1        Baraka    9:43
2        Maulana    13:08
3        Kawaida    7:41
4        Dunia    8:26
5        Kamili    5:45

Состав:
  • Ed Blackwell    Percussion, Bells
  • Billy Bonner    Flute, Percussion
  • Don Cherry    Trumpet
  • Herbie Hancock    Piano
  • Albert "Tootie" Heath    Drums
  • Jimmy Heath    Sax (Soprano), Sax (Tenor)
  • James Mtume    Congas
  • Buster Williams    Bass
Лог проверки качества
foobar2000 1.6.2 / Dynamic Range Meter 1.1.1
log date: 2021-11-28 14:40:40

--------------------------------------------------------------------------------
Analyzed: Herbie Hancock / Kawaida
--------------------------------------------------------------------------------

DR         Peak         RMS     Duration Track
--------------------------------------------------------------------------------
DR11      -1.31 dB   -16.56 dB      9:43 01-Baraka
DR10      -1.31 dB   -14.22 dB     13:08 02-Maulana
DR11      -1.31 dB   -16.57 dB      7:41 03-Kawaida
DR11      -1.31 dB   -14.90 dB      8:26 04-Dunia
DR11      -1.31 dB   -15.10 dB      5:45 05-Kamili
--------------------------------------------------------------------------------

Number of tracks:  5
Official DR value: DR11

Samplerate:        96000 Hz
Channels:          2
Bits per sample:   24
Bitrate:           2541 kbps
Codec:             FLAC
================================================================================
По всем вопросам пишите личное сообщение пользователю M0p94ok.
14:50
232
Нет комментариев. Ваш будет первым!