Вы используете незарегистрированную версию компонента "Вкладки"!

Поиск

1969 Phil Woods & Slide Hampton - 1968 Jazz (1993) {Jazz Time 781253-2} [CD]

1969 Phil Woods & Slide Hampton - 1968 Jazz (1993) {Jazz Time 781253-2} [CD]
Лог создания рипа
Exact Audio Copy V1.0 beta 1 from 15. November 2010
EAC extraction logfile from 8. April 2011, 18:42
Phil Woods & Slide Hampton / 1968 Jazz
Used drive : HL-DT-STDVDRAM GH22NS40 Adapter: 5 ID: 0
Read mode : Secure
Utilize accurate stream : Yes
Defeat audio cache : Yes
Make use of C2 pointers : No
Read offset correction : 667
Overread into Lead-In and Lead-Out : No
Fill up missing offset samples with silence : Yes
Delete leading and trailing silent blocks : No
Null samples used in CRC calculations : Yes
Used interface : Native Win32 interface for Win NT & 2000
Used output format : User Defined Encoder
Selected bitrate : 768 kBit/s
Quality : High
Add ID3 tag : No
Command line compressor : C:\Program Files (x86)\Exact Audio Copy\FLAC\FLAC.EXE
Additional command line options : -6 -V -T "ARTIST=%a" -T "TITLE=%t" -T "ALBUM=%g" -T "DATE=%y" -T "TRACKNUMBER=%n" -T "GENRE=%m" -T "COMMENT=%e" %j--picture="%i"%j %s -o %d
TOC of the extracted CD
Track | Start | Length | Start sector | End sector
---------------------------------------------------------
1 | 0:00.32 | 13:57.73 | 32 | 62879
2 | 13:58.30 | 3:37.55 | 62880 | 79209
3 | 17:36.10 | 7:39.40 | 79210 | 113674
4 | 25:15.50 | 9:39.10 | 113675 | 157109
5 | 34:54.60 | 1:34.30 | 157110 | 164189
6 | 36:29.15 | 10:02.67 | 164190 | 209406
7 | 46:32.07 | 7:18.10 | 209407 | 242266
8 | 53:50.17 | 7:56.13 | 242267 | 277979
9 | 61:46.30 | 4:43.27 | 277980 | 299231
10 | 66:29.57 | 4:04.45 | 299232 | 317576
Range status and errors
Selected range
Filename T:\Phil Woods & Slide Hampton - 1968 Jazz.wav
Peak level 100.0 %
Extraction speed 0.1 X
Range quality 100.0 %
Test CRC C94FA96B
Copy CRC C94FA96B
Copy OK
No errors occurred
AccurateRip summary
Track 1 accurately ripped (confidence 1) [38372BF2]
Track 2 accurately ripped (confidence 1) [AA1597D1]
Track 3 accurately ripped (confidence 1) [15845ED9]
Track 4 accurately ripped (confidence 1) [39316453]
Track 5 accurately ripped (confidence 1) [5C6939B4]
Track 6 accurately ripped (confidence 1) [8002B8DB]
Track 7 accurately ripped (confidence 1) [A586E7CB]
Track 8 accurately ripped (confidence 1) [476194A7]
Track 9 accurately ripped (confidence 1) [83989D34]
Track 10 accurately ripped (confidence 1) [CBD3A677]
All tracks accurately ripped
End of status report
==== Log checksum 2E347E4AC93A1FC9648B1611B4B66DCC791EB1C0AB7BF90400A0461C4B3EEBC2 ====
Содержание индексной карты (.CUE)
REM GENRE Jazz
REM DATE 1969
REM DISCID 90108A0A
REM COMMENT "ExactAudioCopy v1.0b1"
PERFORMER "Phil Woods & Slide Hampton"
TITLE "1968 Jazz"
FILE "Phil Woods & Slide Hampton - 1968 Jazz.flac" WAVE
TRACK 01 AUDIO
TITLE "And When You Are Young"
PERFORMER "Phil Woods & Slide Hampton"
INDEX 00 00:00:00
INDEX 01 00:00:32
TRACK 02 AUDIO
TITLE "Alive And Well"
PERFORMER "Phil Woods & Slide Hampton"
INDEX 01 13:58:30
TRACK 03 AUDIO
TITLE "Freedom Jazz Dance"
PERFORMER "Phil Woods & Slide Hampton"
INDEX 01 17:36:10
TRACK 04 AUDIO
TITLE "Stolen Moments"
PERFORMER "Phil Woods & Slide Hampton"
INDEX 01 25:15:50
TRACK 05 AUDIO
TITLE "Doxy"
PERFORMER "Phil Woods & Slide Hampton"
INDEX 01 34:54:60
TRACK 06 AUDIO
TITLE "In Case Of Emergency"
PERFORMER "Phil Woods & Slide Hampton"
INDEX 01 36:29:15
TRACK 07 AUDIO
TITLE "Last Minute Blues"
PERFORMER "Phil Woods & Slide Hampton"
INDEX 01 46:32:07
TRACK 08 AUDIO
TITLE "Chop Suey"
PERFORMER "Phil Woods & Slide Hampton"
INDEX 01 53:50:17
TRACK 09 AUDIO
TITLE "Lament"
PERFORMER "Phil Woods & Slide Hampton"
INDEX 01 61:46:30
TRACK 10 AUDIO
TITLE "Impossible Jazz"
PERFORMER "Phil Woods & Slide Hampton"
INDEX 01 66:29:57
Any questions - support@pro-jazz.com. Есть вопросы - support@pro-jazz.com
21:03
131
Нет комментариев. Ваш будет первым!