Поиск

1969 Eddie Cleanhead Vinson & Jay McShann - Jumpin' the Blues (2003) {Black&Blue BB 959.2} [CD]

1969 Eddie Cleanhead Vinson & Jay McShann - Jumpin' the Blues (2003) {Black&Blue BB 959.2} [CD]
Стили:
Дата записи диска:
9 марта 1969
Место записи:
Paris, France
Дата издания диска:
2003
Издатель (лейбл):
Номер по каталогу:
BB 959.2
Носитель:
CD
Аудиокодек:
FLAC (*.flac)
Тип рипа:
image+.cue
Битрейт аудио:
lossless
Время звучания:
01:02:32
Наличие сканов:
да
Релизёр (источник):
рмх222
Треклист:
01 - Confessin' the Blues (3:19)
02 - Yardbird Waltz (3:43)
03 - My Chile (3:43)
04 - Satin Doll (5:17)
05 - Kansas City (4:05)
06 - Jumpin' the Blues (4:06)
07 - Mr Cleanhead Blues (4:15)
08 - Wait a Minute, Baby (4:18)
09 - Juice Head Baby (5:01)
10 - Kidney Stew (8:23)
11 - Cherry Red (3:04)
12 - Red Top (4:55)
13 - Roll'em / C Jam Blues (6:15)
14 - C Jam Again (2:11)
Лог создания рипа
Exact Audio Copy V0.99 prebeta 5 from 4. May 2009

EAC extraction logfile from 12. December 2009, 13:40

Eddie Vinson and Jay McShann / Jumpin' the Blues

Used drive  : PLEXTOR CD-R   PX-230A   Adapter: 1  ID: 1

Read mode               : Secure
Utilize accurate stream : Yes
Defeat audio cache      : Yes
Make use of C2 pointers : No

Read offset correction                      : 738
Overread into Lead-In and Lead-Out          : No
Fill up missing offset samples with silence : Yes
Delete leading and trailing silent blocks   : No
Null samples used in CRC calculations       : Yes
Used interface                              : Installed external ASPI interface
Gap handling                                : Appended to previous track

Used output format              : User Defined Encoder
Selected bitrate                : 1024 kBit/s
Quality                         : High
Add ID3 tag                     : No
Command line compressor         : C:\Program Files\Exact Audio Copy\FLAC\FLAC.EXE
Additional command line options : -6 -V -T "ARTIST=%a" -T "TITLE=%t" -T "ALBUM=%g" -T "DATE=%y" -T "TRACKNUMBER=%n" -T "GENRE=%m" -T "COMMENT=%e" %s -o %d

TOC of the extracted CD

     Track |   Start  |  Length  | Start sector | End sector
    ---------------------------------------------------------
        1  |  0:00.04 |  3:19.23 |         4    |    14951
        2  |  3:19.27 |  3:42.54 |     14952    |    31655
        3  |  7:02.06 |  3:42.50 |     31656    |    48355
        4  | 10:44.56 |  5:16.47 |     48356    |    72102
        5  | 16:01.28 |  4:05.32 |     72103    |    90509
        6  | 20:06.60 |  4:05.44 |     90510    |   108928
        7  | 24:12.29 |  4:14.41 |    108929    |   128019
        8  | 28:26.70 |  4:17.43 |    128020    |   147337
        9  | 32:44.38 |  5:00.60 |    147338    |   169897
       10  | 37:45.23 |  8:23.08 |    169898    |   207630
       11  | 46:08.31 |  3:03.55 |    207631    |   221410
       12  | 49:12.11 |  4:54.52 |    221411    |   243512
       13  | 54:06.63 |  6:15.01 |    243513    |   271638
       14  | 60:21.64 |  2:10.45 |    271639    |   281433

Track  1

     Filename J:\Rips\01 - Confessin' the Blues.wav

     Pre-gap length  0:00:02.05

     Peak level 99.9 %
     Track quality 100.0 %
     Test CRC 309C8659
     Copy CRC 309C8659
     Accurately ripped (confidence 1)  [249E5F4C]
     Copy OK

Track  2

     Filename J:\Rips\02 - Yardbird Waltz.wav

     Peak level 99.9 %
     Track quality 100.0 %
     Test CRC EA0F59EC
     Copy CRC EA0F59EC
     Accurately ripped (confidence 1)  [9C2649E3]
     Copy OK

Track  3

     Filename J:\Rips\03 - My Chile.wav

     Peak level 99.9 %
     Track quality 100.0 %
     Test CRC FEF28521
     Copy CRC FEF28521
     Accurately ripped (confidence 1)  [F0CB3E57]
     Copy OK

Track  4

     Filename J:\Rips\04 - Satin Doll.wav

     Peak level 99.9 %
     Track quality 100.0 %
     Test CRC 23971A4B
     Copy CRC 23971A4B
     Accurately ripped (confidence 1)  [9EA0978E]
     Copy OK

Track  5

     Filename J:\Rips\05 - Kansas City.wav

     Peak level 99.9 %
     Track quality 100.0 %
     Test CRC 128431D9
     Copy CRC 128431D9
     Accurately ripped (confidence 1)  [3123A2C4]
     Copy OK

Track  6

     Filename J:\Rips\06 - Jumpin' the Blues.wav

     Peak level 99.9 %
     Track quality 100.0 %
     Test CRC A9276D55
     Copy CRC A9276D55
     Accurately ripped (confidence 1)  [AF86448F]
     Copy OK

Track  7

     Filename J:\Rips\07 - Mr Cleanhead Blues.wav

     Peak level 99.9 %
     Track quality 100.0 %
     Test CRC 7B3B13F6
     Copy CRC 7B3B13F6
     Accurately ripped (confidence 1)  [3C6E2887]
     Copy OK

Track  8

     Filename J:\Rips\08 - Wait a Minute, Baby.wav

     Peak level 99.9 %
     Track quality 100.0 %
     Test CRC 085959CB
     Copy CRC 085959CB
     Accurately ripped (confidence 1)  [BBDB3D6B]
     Copy OK

Track  9

     Filename J:\Rips\09 - Juice Head Baby.wav

     Peak level 99.9 %
     Track quality 100.0 %
     Test CRC 97B1BB19
     Copy CRC 97B1BB19
     Accurately ripped (confidence 1)  [1FA40B5B]
     Copy OK

Track 10

     Filename J:\Rips\10 - Kidney Stew.wav

     Peak level 99.9 %
     Track quality 100.0 %
     Test CRC 8EDFC391
     Copy CRC 8EDFC391
     Accurately ripped (confidence 1)  [8F96A1C9]
     Copy OK

Track 11

     Filename J:\Rips\11 - Cherry Red.wav

     Peak level 99.9 %
     Track quality 100.0 %
     Test CRC 3CB0CF12
     Copy CRC 3CB0CF12
     Accurately ripped (confidence 1)  [7FBA609B]
     Copy OK

Track 12

     Filename J:\Rips\12 - Red Top.wav

     Peak level 99.9 %
     Track quality 100.0 %
     Test CRC 469D92A8
     Copy CRC 469D92A8
     Accurately ripped (confidence 1)  [FEBEB0C7]
     Copy OK

Track 13

     Filename J:\Rips\13 - Roll'em , C Jam Blues.wav

     Peak level 99.9 %
     Track quality 100.0 %
     Test CRC 203B7BA0
     Copy CRC 203B7BA0
     Accurately ripped (confidence 1)  [CFB6CD36]
     Copy OK

Track 14

     Filename J:\Rips\14 - C Jam Again.wav

     Peak level 99.9 %
     Track quality 100.0 %
     Test CRC 1F405EC4
     Copy CRC 1F405EC4
     Accurately ripped (confidence 1)  [0051E46B]
     Copy OK

All tracks accurately ripped

No errors occurred

End of status report
Содержание индексной карты (.CUE)
REM GENRE Blues
REM DATE 1985
REM DISCID C40EA80E
REM COMMENT "ExactAudioCopy v0.99pb5"
PERFORMER "Eddie Vinson and Jay McShann"
TITLE "Jumpin' the Blues"
FILE "01 - Confessin' the Blues.wav" WAVE
  TRACK 01 AUDIO
    TITLE "Confessin' the Blues"
    PERFORMER "Eddie Vinson and Jay McShann"
    FLAGS DCP
    PREGAP 00:00:04
    INDEX 01 00:00:00
FILE "02 - Yardbird Waltz.wav" WAVE
  TRACK 02 AUDIO
    TITLE "Yardbird Waltz"
    PERFORMER "Eddie Vinson and Jay McShann"
    FLAGS DCP
    INDEX 01 00:00:00
FILE "03 - My Chile.wav" WAVE
  TRACK 03 AUDIO
    TITLE "My Chile"
    PERFORMER "Eddie Vinson and Jay McShann"
    FLAGS DCP
    INDEX 01 00:00:00
FILE "04 - Satin Doll.wav" WAVE
  TRACK 04 AUDIO
    TITLE "Satin Doll"
    PERFORMER "Eddie Vinson and Jay McShann"
    FLAGS DCP
    INDEX 01 00:00:00
FILE "05 - Kansas City.wav" WAVE
  TRACK 05 AUDIO
    TITLE "Kansas City"
    PERFORMER "Eddie Vinson and Jay McShann"
    FLAGS DCP
    INDEX 01 00:00:00
FILE "06 - Jumpin' the Blues.wav" WAVE
  TRACK 06 AUDIO
    TITLE "Jumpin' the Blues"
    PERFORMER "Eddie Vinson and Jay McShann"
    FLAGS DCP
    INDEX 01 00:00:00
FILE "07 - Mr Cleanhead Blues.wav" WAVE
  TRACK 07 AUDIO
    TITLE "Mr Cleanhead Blues"
    PERFORMER "Eddie Vinson and Jay McShann"
    FLAGS DCP
    INDEX 01 00:00:00
FILE "08 - Wait a Minute, Baby.wav" WAVE
  TRACK 08 AUDIO
    TITLE "Wait a Minute, Baby"
    PERFORMER "Eddie Vinson and Jay McShann"
    FLAGS DCP
    INDEX 01 00:00:00
FILE "09 - Juice Head Baby.wav" WAVE
  TRACK 09 AUDIO
    TITLE "Juice Head Baby"
    PERFORMER "Eddie Vinson and Jay McShann"
    FLAGS DCP
    INDEX 01 00:00:00
FILE "10 - Kidney Stew.wav" WAVE
  TRACK 10 AUDIO
    TITLE "Kidney Stew"
    PERFORMER "Eddie Vinson and Jay McShann"
    FLAGS DCP
    INDEX 01 00:00:00
FILE "11 - Cherry Red.wav" WAVE
  TRACK 11 AUDIO
    TITLE "Cherry Red"
    PERFORMER "Eddie Vinson and Jay McShann"
    FLAGS DCP
    INDEX 01 00:00:00
FILE "12 - Red Top.wav" WAVE
  TRACK 12 AUDIO
    TITLE "Red Top"
    PERFORMER "Eddie Vinson and Jay McShann"
    FLAGS DCP
    INDEX 01 00:00:00
FILE "13 - Roll'em , C Jam Blues.wav" WAVE
  TRACK 13 AUDIO
    TITLE "Roll'em / C Jam Blues"
    PERFORMER "Eddie Vinson and Jay McShann"
    FLAGS DCP
    INDEX 01 00:00:00
    INDEX 02 03:46:10
FILE "14 - C Jam Again.wav" WAVE
  TRACK 14 AUDIO
    TITLE "C Jam Again"
    PERFORMER "Eddie Vinson and Jay McShann"
    FLAGS DCP
    INDEX 01 00:00:00
Приватный:
Нет (DHT включён)
Размер:
462.08 Мб (484,525,779 байт) » файлов: 27
Участники:
0 раздают, 0 качают (0 участников всего)
Внешние участники:
5 раздают, 2 качают (7 участников всего) [ Обновить ]
Никого нет на раздаче - пишите личное сообщение M0p94ok
No seeders - write personal message to M0p94ok
16:09
24
21:16