Вы используете незарегистрированную версию компонента "Вкладки"!

Поиск

1968 Willie Ruff - The Smooth Side of Ruff (2018) {Columbia, Legacy} [24-96]

1968 Willie Ruff - The Smooth Side of Ruff (2018) {Columbia, Legacy} [24-96]
Издатель (лейбл):
Номер по каталогу:
CS 9603
Носитель:
WEB
Формат:
PCM
Тип рипа:
tracks+.cue
Контейнер:
FLAC (*.flac)
Количество каналов:
2.0
Разрядность/ЧД:
24/96
Битрейт аудио:
lossless
Наличие сканов:
web
Страна-производитель диска (релиза):
USA
Релизёр (источник):
M0p94ok
Лог проверки качества
foobar2000 1.3.16 / Dynamic Range Meter 1.1.1
log date: 2018-12-03 16:05:34

--------------------------------------------------------------------------------
Analyzed: Willie Ruff / The Smooth Side of Ruff
--------------------------------------------------------------------------------

DR         Peak         RMS     Duration Track
--------------------------------------------------------------------------------
DR14      -0.02 dB   -18.20 dB      4:47 01-Sheffield Blues
DR11      -0.02 dB   -15.52 dB      3:09 02-Pa Moscunia Vechera
DR11      -1.08 dB   -13.96 dB      2:54 03-Slim
DR12      -0.02 dB   -14.37 dB      3:10 04-Recado
DR13      -0.02 dB   -15.79 dB      2:05 05-Jet Set Gypsy
DR10      -1.77 dB   -16.59 dB      3:35 06-Snowfall
DR11      -0.33 dB   -14.35 dB      2:02 07-Casino Royale
DR11      -4.13 dB   -21.21 dB      1:59 08-Soundboard
DR10      -3.67 dB   -18.84 dB      2:21 09-Mirage Blanc
DR12      -0.02 dB   -15.02 dB      3:42 10-That Someone Is Me
DR12      -0.13 dB   -14.94 dB      6:31 11-Bella Pulcinella
--------------------------------------------------------------------------------

Number of tracks:  11
Official DR value: DR12

Samplerate:        96000 Hz
Channels:          2
Bits per sample:   24
Bitrate:           3221 kbps
Codec:             FLAC
================================================================================
Any questions - support@pro-jazz.com. Есть вопросы - support@pro-jazz.com
13:59
359
Нет комментариев. Ваш будет первым!