Поиск

1968 George Gruntz - St. Peter Power (2017) {MPS} [24-88,2]

1968 George Gruntz - St. Peter Power (2017) {MPS} [24-88,2]
Стили:
Издатель (лейбл):

Треклист:

Формат записи/Источник записи: [TR24][OF]
Наличие водяных знаков: Нет
Издание: Remastered
Год издания/переиздания диска: 1968/2017
Продолжительность: 31:24
Наличие сканов в содержимом раздачи: Только обложка альбома
Источник: WRZmusic
Магазин: qobuz.com
Контейнер: FLAC (*.flac)
Тип рипа: tracks
Разрядность: 24/88,2
Формат: PCM
Количество каналов: 2.0

Треклист:
01. I'll Remember Clifford (2:53)
02. Summertime (4:05)
03. God Bless The Child (2:31)
04. Lonely Woman (2:50)
05. My Funny Valentine (3:21)
06. You Don't Know What Love Is (2:34)
07. Nobody Knows The Trouble I've Seen (2:34)
08. Django (4:48)
09. Yesterdays (2:37)
10. Jesus Maria (3:10)

 
Лог проверки качества
foobar2000 1.3.9 / Dynamic Range Meter 1.1.1
log date: 2018-06-25 09:51:47
--------------------------------------------------------------------------------
Analyzed: George Gruntz / St. Peter Power
--------------------------------------------------------------------------------
DR         Peak         RMS     Duration Track
--------------------------------------------------------------------------------
DR10      -2.12 dB   -16.86 dB      2:53 01-I'll Remember Clifford
DR11      -3.64 dB   -17.35 dB      4:05 02-Summertime
DR11      -7.75 dB   -22.28 dB      2:31 03-God Bless The Child
DR12      -2.53 dB   -18.18 dB      2:50 04-Lonely Woman
DR12      -4.24 dB   -19.61 dB      3:21 05-My Funny Valentine
DR10      -2.98 dB   -17.14 dB      2:34 06-You Don't Know What Love Is
DR11      -3.28 dB   -16.69 dB      2:34 07-Nobody Knows The Trouble I've Seen
DR13      -0.69 dB   -17.86 dB      4:48 08-Django
DR10      -2.94 dB   -17.29 dB      2:37 09-Yesterdays
DR13      -5.67 dB   -22.26 dB      3:10 10-Jesus Maria
--------------------------------------------------------------------------------
Number of tracks:  10
Official DR value: DR11
Samplerate:        88200 Hz
Channels:          2
Bits per sample:   24
Bitrate:           2409 kbps
Codec:             FLAC
================================================================================

 

Состав:
  • George Gruntz - pipe organ
  • Eberhard Weber - bass
  • Daniel Humair - drums

Recorded at the Kloster- and Pfarrkirche St. Peter, Schwarzwald (Black Forest), Southern Germany, July 15 & 16, 1968.

Download available for power users only.
08:57
633
Нет комментариев. Ваш будет первым!