Поиск

1968 Charlie Byrd - Hit Trip (2018) {Columbia, Legacy} [24-192]

1968 Charlie Byrd - Hit Trip (2018) {Columbia, Legacy} [24-192]
Издатель (лейбл):
Треклист:

Формат записи/Источник записи: [TR24][OF]
Наличие водяных знаков: Нет
Год издания/переиздания диска: 1968/2018
Продолжительность: 31:14
Наличие сканов в содержимом раздачи: Только обложка альбома
Контейнер: FLAC (*.flac)
Тип рипа: tracks
Разрядность: 24/192
Формат: PCM
Количество каналов: 2.0
Источник: qobuz.com

Треклист:
01. Love Is Blue (1:53)
02. Wait Until Dark (2:32)
03. Talk To The Animals (2:27)
04. Live For Life (2:24)
05. The Look Of Love (2:55)
06. Shiny Stockings (4:15)
07. Up, Up And Away (2:24)
08. A Man And A Woman (4:05)
09. Sunny (2:45)
10. Barefoot In The Park (2:18)
11. If I Were A Rich Man (3:16)

 
Лог проверки качества
foobar2000 1.3.9 / Dynamic Range Meter 1.1.1
log date: 2018-06-29 22:38:17
--------------------------------------------------------------------------------
Analyzed: Charlie Byrd / Hit Trip
--------------------------------------------------------------------------------
DR         Peak         RMS     Duration Track
--------------------------------------------------------------------------------
DR12      -0.40 dB   -14.97 dB      1:53 01-Love Is Blue
DR10      -3.71 dB   -18.14 dB      2:32 02-Wait Until Dark
DR12      -2.19 dB   -16.32 dB      2:27 03-Talk To The Animals
DR12      -4.49 dB   -18.68 dB      2:24 04-Live For Life
DR11      -2.40 dB   -17.71 dB      2:55 05-The Look Of Love
DR11      -1.84 dB   -16.62 dB      4:15 06-Shiny Stockings
DR10      -2.33 dB   -15.52 dB      2:24 07-Up, Up And Away
DR13      -3.36 dB   -18.89 dB      4:05 08-A Man And A Woman
DR11      -3.45 dB   -17.91 dB      2:45 09-Sunny
DR11      -2.80 dB   -16.50 dB      2:18 10-Barefoot In The Park
DR12      -3.16 dB   -17.66 dB      3:16 11-If I Were A Rich Man
--------------------------------------------------------------------------------
Number of tracks:  11
Official DR value: DR11
Samplerate:        192000 Hz
Channels:          2
Bits per sample:   24
Bitrate:           5204 kbps
Codec:             FLAC
================================================================================

 

Состав:
  • Charlie Byrd  — guitar
  • Joe Byrd — bass
  • Bill Reichenbach — drums
  • Producer – Teo Macero
По всем вопросам пишите личное сообщение пользователю M0p94ok.
14:06
663
Нет комментариев. Ваш будет первым!