Поиск

1968-1980 Teddy Wilson - St. Louis Blues (2017) {2xHD} [24-192]

1968-1980 Teddy Wilson - St. Louis Blues (2017) {2xHD} [24-192]
Стили:
Издатель (лейбл):
Номер по каталогу:
ST1082
Битрейт аудио:
lossless
Треклист:

01 - How High the Moon 04:00
02 - Keeping out of Mischief Now 04:25 (a)
03 - Don’t Be That Way 04:40 (a)
04 - Somebody Loves Me 03:35 (a)
05 - St. Louis Blues 05:28 (a)
06 - I’ll Remember April 05:02 (a)
07 - If I Had You 02:47 (b)
08 - I’ve Got a Feeling I’m Falling 02:55 (b)
09 - Prelude to a Kiss 02:55 (b)
10 - You’re Blase 02:42 (b)
11 - When You’re Smiling 03:33
12 - Easy Living 02:46

Состав:

(a)

Recorded June 15th, 1980 in Studio 39, Copenhagen Engineer: Hans Nielsen

(b)

  • Teddy Wilson – piano
  • Niels Henning Ørsted Pedersen – bass
  • Bjarne Rostvold – drums
  • Recorded December 14th, 1968 in Metronome Studio, Copenhagen
  • Engineer: Birger Ulstad
  • Producer: Timme Rosenkrantz
Доп. инфо:

Формат записи/Источник записи: [TR24][OF]
Издание: Remastered
Год издания/переиздания диска: 1968-1980/2017
Продолжительность: 00:44:48
Наличие сканов в содержимом раздачи: Буклет PDF

Контейнер: FLAC (*.flac)
Тип рипа: tracks
Разрядность: 24/192
Количество каналов: 2.0

Источник (релизер): Qobuz

Лог проверки качества
foobar2000 1.4.3 / Dynamic Range Meter 1.1.1
log date: 2020-06-19 01:10:29

--------------------------------------------------------------------------------
Analyzed: Teddy Wilson / St. Louis Blues (Remastered)
--------------------------------------------------------------------------------

DR         Peak         RMS     Duration Track
--------------------------------------------------------------------------------
DR13      -1.12 dB   -17.22 dB      4:01 01-How High the Moon
DR13      -0.92 dB   -16.76 dB      4:25 02-Keeping out of Mischief Now
DR13      -0.90 dB   -17.56 dB      4:40 03-Don't Be That Way
DR12      -0.66 dB   -16.47 dB      3:35 04-Somebody Loves Me
DR13      -1.57 dB   -16.98 dB      5:29 05-St. Louis Blues
DR12      -1.38 dB   -16.65 dB      5:02 06-I'll Remember April
DR9        0.00 dB   -12.23 dB      2:47 07-If I Had You
DR11      -1.24 dB   -17.28 dB      2:55 08-I've Got a Feeling I'm Falling
DR11      -3.92 dB   -18.58 dB      2:55 09-Prelude to a Kiss
DR10      -1.66 dB   -15.64 dB      2:42 10-You're Blase
DR11      -1.02 dB   -17.42 dB      3:33 11-When You're Smiling
DR11      -3.90 dB   -17.45 dB      2:49 12-Easy Living
--------------------------------------------------------------------------------

Number of tracks:  12
Official DR value: DR12

Samplerate:        192000 Hz
Channels:          2
Bits per sample:   24
Bitrate:           3775 kbps
Codec:             FLAC
================================================================================
По всем вопросам пишите личное сообщение пользователю M0p94ok.
06:57
440
Нет комментариев. Ваш будет первым!