Поиск

1967 Sarah Vaughan - I Had a Ball: Concert in Paris (2021) {Concert Archives, Delta} [24-44.1]

1967 Sarah Vaughan - I Had a Ball: Concert in Paris (2021) {Concert Archives, Delta} [24-44.1]
Стили:
Дата переиздания диска:
18 августа 2021
Носитель:
WEB
Формат:
PCM
Тип рипа:
tracks
Контейнер:
FLAC (*.flac)
Количество каналов:
2.0
Разрядность/ЧД:
24/44,1
Битрейт аудио:
lossless
Время звучания:
00:44:10
Наличие сканов:
только обложка

Треклист:

01 - Lover, Come Back to Me 02:09
02 - And I Love Him 02:38
03 - Round About Midnight 06:37
04 - Sassy's Blues 04:43
05 - Misty 04:51
06 - Just One of Those Things 02:39
07 - Alfie 07:14
08 - What Now My Love 03:39
09 - I Had a Ball 04:22
10 - Lover Man 05:18

Состав:
  • Sarah Vaughan — vocals
  • Bob James — piano
  • Herb Mickman — double bass
  • Omar Clay — drums
Лог проверки качества
foobar2000 1.4.3 / Dynamic Range Meter 1.1.1
log date: 2021-09-30 14:47:16
--------------------------------------------------------------------------------
Analyzed: Sarah Vaughan / I Had a Ball: Concert in Paris
--------------------------------------------------------------------------------
DR         Peak         RMS     Duration Track
--------------------------------------------------------------------------------
DR10      -0.56 dB   -13.91 dB      2:09 01-Lover, Come Back to Me (Live)
DR11      -0.11 dB   -16.42 dB      2:39 02-And I Love Him (Live)
DR14      -0.08 dB   -18.51 dB      6:38 03-Round About Midnight (Live)
DR12      -0.09 dB   -14.70 dB      4:43 04-Sassy's Blues (Live)
DR12      -0.12 dB   -17.64 dB      4:51 05-Misty (Live)
DR10      -0.08 dB   -12.68 dB      2:39 06-Just One of Those Things (Live)
DR13      -0.08 dB   -17.17 dB      7:14 07-Alfie (Live)
DR10      -0.08 dB   -13.49 dB      3:39 08-What Now My Love (Live)
DR11      -0.08 dB   -12.68 dB      4:23 09-I Had a Ball (Live)
DR13      -0.13 dB   -16.42 dB      5:18 10-Lover Man (Live)
--------------------------------------------------------------------------------
Number of tracks:  10
Official DR value: DR12
Samplerate:        44100 Hz
Channels:          2
Bits per sample:   24
Bitrate:           1431 kbps
Codec:             FLAC
================================================================================
12:09
468
Нет комментариев. Ваш будет первым!